<?xml version="1.0" standalone="no"?>
<!DOCTYPE svg PUBLIC "-//W3C//DTD SVG 1.1//EN" "http://www.w3.org/Graphics/SVG/1.1/DTD/svg11.dtd" >
<svg xmlns="http://www.w3.org/2000/svg">
<metadata>
Created by FontForge 20120731 at Wed Jan 11 18:01:18 2017
 By admin
</metadata>
<defs>
<font id="iconfont" horiz-adv-x="1024" >
  <font-face 
    font-family="iconfont"
    font-weight="500"
    font-stretch="normal"
    units-per-em="1024"
    panose-1="2 0 6 3 0 0 0 0 0 0"
    ascent="896"
    descent="-128"
    x-height="792"
    bbox="-0.702381 -171 1104 896.5"
    underline-thickness="0"
    underline-position="0"
    unicode-range="U+0078-E8FF"
  />
<missing-glyph 
 />
    <glyph glyph-name=".notdef" 
 />
    <glyph glyph-name=".notdef" 
 />
    <glyph glyph-name=".null" horiz-adv-x="0" 
 />
    <glyph glyph-name="nonmarkingreturn" horiz-adv-x="341" 
 />
    <glyph glyph-name="x" unicode="x" horiz-adv-x="1001" 
d="M281 543q-27 -1 -53 -1h-83q-18 0 -36.5 -6t-32.5 -18.5t-23 -32t-9 -45.5v-76h912v41q0 16 -0.5 30t-0.5 18q0 13 -5 29t-17 29.5t-31.5 22.5t-49.5 9h-133v-97h-438v97zM955 310v-52q0 -23 0.5 -52t0.5 -58t-10.5 -47.5t-26 -30t-33 -16t-31.5 -4.5q-14 -1 -29.5 -0.5
t-29.5 0.5h-32l-45 128h-439l-44 -128h-29h-34q-20 0 -45 1q-25 0 -41 9.5t-25.5 23t-13.5 29.5t-4 30v167h911zM163 247q-12 0 -21 -8.5t-9 -21.5t9 -21.5t21 -8.5q13 0 22 8.5t9 21.5t-9 21.5t-22 8.5zM316 123q-8 -26 -14 -48q-5 -19 -10.5 -37t-7.5 -25t-3 -15t1 -14.5
t9.5 -10.5t21.5 -4h37h67h81h80h64h36q23 0 34 12t2 38q-5 13 -9.5 30.5t-9.5 34.5q-5 19 -11 39h-368zM336 498v228q0 11 2.5 23t10 21.5t20.5 15.5t34 6h188q31 0 51.5 -14.5t20.5 -52.5v-227h-327z" />
    <glyph glyph-name="redian" unicode="&#xe6bf;" 
d="M553 216q-24 0 -38.5 -17t-14.5 -45t14 -45t38 -17t38.5 16t14.5 45q0 30 -14 46.5t-38 16.5zM657 584q1 -7 4 -20t7 -46t3.5 -59.5t-9.5 -51t-28 -31.5q-4 1 -11.5 2.5t-26 12t-32.5 25t-24.5 44t-8.5 66.5t21.5 95t58.5 126q-56 -10 -89 -30q-5 -3 -14.5 -9t-36 -26.5
t-49.5 -43.5t-47.5 -60t-37.5 -76.5t-13 -93t19 -108.5q-4 -1 -9.5 -0.5t-21 7.5t-27.5 20.5t-23 45.5t-13 77q-7 -8 -18 -22.5t-35.5 -59t-38.5 -89t-13 -106.5t27 -116q4 -9 13 -23t40.5 -50t68 -63t96 -48.5t125.5 -19.5q7 0 20 1t50 7.5t71.5 18t76.5 36t73.5 57.5
t55 86.5t27.5 118.5v0q0 7 -0.5 18.5t-5 45.5t-12.5 66.5t-25.5 75.5t-41 78t-61.5 68.5t-85 53.5zM449 77h-20v69h-79v-69h-19v154h19v-67h79v67h20v-154zM605.5 96q-20.5 -22 -53.5 -22t-53 21.5t-20 56.5q0 38 20 60t55 22q32 0 52 -21.5t20 -56.5q0 -38 -20.5 -60z
M739 214h-44v-137h-21v137h-44v17h109v-17z" />
    <glyph glyph-name="jinlingyingcaiwangtubiao52" unicode="&#xe6d3;" 
d="M723 476h-191v-167h216q-2 89 -25 167zM532 -131q57 8 104.5 61t77.5 138h-182v-199zM532 707v-189h178q-30 80 -76.5 130.5t-101.5 58.5zM494 267h-216q2 -91 25 -171h191v171v0zM748 267h-216v-171h190q24 80 26 171zM762 96h168q37 81 41 171h-185q-2 -90 -24 -171z
M276 518q36 105 99 167t137.5 62t137.5 -62t100 -167h160q-61 105 -166.5 167t-230.5 62t-230.5 -62t-166.5 -167h160zM762 476q22 -79 24 -167h185q-4 88 -40 167h-169zM272 68h-162q59 -109 167 -174t236 -65q-77 0 -141 65t-100 174zM754 68q-36 -109 -100.5 -174
t-140.5 -65q128 0 235.5 65t167.5 174h-162zM94 476q-36 -79 -40 -167h185q3 88 24 167h-169zM494 707q-55 -8 -102 -58.5t-76 -130.5h178v189zM494 476h-192q-22 -78 -24 -167h216v167v0zM494 -131v199h-182q29 -85 77 -138t105 -61zM239 267h-185q5 -90 42 -171h168
q-22 81 -25 171z" />
    <glyph glyph-name="shishangdaren" unicode="&#xe635;" 
d="M960 459l-179 224h-538l-179 -224v-90l448 -451l448 451v90zM385 593h255l49 -89h-358zM112 459h222v-90h-224zM512 102l-179 223h358zM691 369v90h224v-90h-224z" />
    <glyph glyph-name="meishi" unicode="&#xe648;" 
d="M752 628q-6 0 -12 -3q-112 -40 -179 -76q-28 -16 -48 -33.5t-26 -26.5l-7 -10v-113l-6 -6q-3 -5 -6 -8l-33 -33q-3 -3 -8 -6l-152 -152q-7 -7 -7 -17t7 -17.5t17 -7.5t18 7l460 460q7 8 7 18t-7.5 17t-17.5 7zM487 552l-113 97l-19 -20l100 -110q15 18 32 33zM404 350
l34 34v111q2 4 7 10l-4 -4l-118 96l-12 -12l-12 -12l97 -120l-15 -15l-114 103l-20 -19l125 -146q13 -14 32 -26zM512 896q-139 0 -257 -68.5t-186.5 -186.5t-68.5 -257t68.5 -257t186.5 -186.5t257 -68.5t257 68.5t186.5 186.5t68.5 257t-68.5 257t-186.5 186.5t-257 68.5z
M340 96q-20 -19 -47.5 -19t-47 19.5t-19.5 47t19 47.5l129 128q-20 14 -33 28q0 1 -0.5 1h-0.5l-125 146q-11 13 -10.5 29.5t12.5 28.5l20 19q9 9 21 12q2 12 11 20l12 12l12 12q8 9 20 11q3 12 12 21l19 20q13 12 30 12q16 0 28 -10l113 -96q4 -4 8 -10q9 6 17 11
q69 38 184 78q13 6 28 6q28 0 47.5 -19.5t19.5 -47t-19 -47.5zM794.5 101.5q-24.5 -24.5 -59 -24.5t-58.5 24l-2 2l-123 138q-6 6 -5.5 15t7 15t15 5.5t14.5 -7.5l124 -138q12 -12 29 -12t29 12t12 29t-12 29l-138 124q-7 6 -7.5 14.5t5.5 15t15 7t15 -5.5l138 -123l2 -2
q24 -24 24 -58.5t-24.5 -59z" />
    <glyph glyph-name="wenhuayutiyu" unicode="&#xe625;" 
d="M512 423q-85 79 -193.5 122.5t-228.5 43.5v-516q120 0 228.5 -43.5t193.5 -122.5q85 79 193.5 122.5t228.5 43.5v516q-120 0 -228.5 -43.5t-193.5 -122.5zM512 589q58 0 99.5 41.5t41.5 99.5t-41.5 99.5t-99.5 41.5t-99.5 -41.5t-41.5 -99.5t41.5 -99.5t99.5 -41.5z" />
    <glyph glyph-name="3" unicode="&#xe687;" 
d="M535 151v0h-21q-187 4 -319 62q-67 30 -103 69.5t-35 83.5q1 42 36.5 79t100.5 65q127 53 307 53q11 0 21 -1q187 -3 319 -62q68 -30 104 -69.5t35 -82.5q-1 -42 -36.5 -79.5t-100.5 -64.5q-127 -53 -308 -53zM501 524q-172 0 -292 -50q-53 -23 -83 -51.5t-30 -57.5
q-1 -31 29.5 -61.5t85.5 -54.5q125 -56 304 -59h20v0q173 0 293 50q53 22 82.5 50.5t30.5 58.5t-29.5 60.5t-85.5 55.5q-125 55 -304 58q-11 1 -21 1zM711 -46q-78 0 -179 81q-100 80 -185 208q-103 156 -130 298q-14 73 -1.5 125t48.5 76q26 17 61 17q79 0 180 -81
q100 -80 185 -208q103 -156 130 -298q13 -73 1 -124.5t-48 -75.5q-26 -18 -62 -18zM325 720q-23 0 -40 -11q-25 -17 -33 -59t3 -102q25 -134 124 -283q82 -123 177 -199q91 -73 155 -73q24 0 40 11q26 17 34 59t-4 102q-25 134 -123 284q-82 123 -177 199q-91 72 -156 72z
M348 -60q-29 0 -52 12q-38 21 -54.5 72t-8.5 124q15 144 105 308q48 86 106.5 156.5t117.5 112.5q7 4 15 3t12.5 -8t3 -14.5t-7.5 -12.5q-56 -39 -111.5 -106t-101.5 -150q-86 -157 -100 -293q-7 -60 4.5 -101.5t38 -56t67.5 -2t89 50.5q107 84 194 241q95 174 102 317
q0 8 6 13t14 5t13.5 -6t5.5 -14q-8 -152 -107 -333q-91 -164 -204 -254q-81 -64 -147 -64zM721 726zM624 725.5q0 40.5 28.5 69t69 28.5t69 -28.5t28.5 -69t-28.5 -69t-69 -28.5t-69 28.5t-28.5 69z" />
    <glyph glyph-name="tiyuzhuanhuan" unicode="&#xe640;" horiz-adv-x="1025" 
d="M150 22q-74 74 -112 169.5t-38 192.5t38 192.5t112 169.5q98 98 230 133t264 0t230 -133t133 -230t0 -264t-133 -230t-230 -133t-264 0t-230 133zM68 434q149 -6 259 89l-153 154q-91 -105 -106 -243zM372 569q89 110 80 258q-133 -18 -233 -105zM805 722
q-123 107 -288 109q6 -84 -18.5 -164.5t-78.5 -145.5l92 -92zM467 384l-92 92q-64 -57 -144 -84.5t-166 -22.5q6 -159 109 -278zM805 46l-156 156q-96 -114 -90 -263q140 15 246 107zM219 46q118 -103 276 -109q-3 84 24.5 164.5t84.5 145.5l-92 92zM850 677l-293 -293
l92 -92q65 57 145.5 84.5t164.5 24.5q-6 158 -109 276zM957 337q-150 6 -263 -90l156 -156q92 106 107 246z" />
    <glyph glyph-name="lvyou" unicode="&#xe657;" 
d="M215 -124h134q-24 38 -43 106zM767 164l-227 -255l23 -33h166h295zM553 259l-107 -129q2 -11 7 -40t7.5 -38.5t8 -29t13 -35t18.5 -33.5l1 1l156 183zM475 -99q-6 10 -12 22l-1 1v1q-18 34 -34 77q-2 4 -2 5q-5 12 -8 20l-2 8q-3 9 -6 19q-3 8 -3 9q-4 12 -5 17
q-32 107 -44 177t-7 92q1 2 1 6q43 5 98 -3q24 -4 58.5 -16.5t55.5 -19t24 -0.5q2 4 -13.5 22.5t-41 39.5t-47.5 31q21 3 45 4t38 1t36.5 -1t27.5 -1q39 -1 40 0q3 3 -5.5 10t-22.5 14.5t-27 11.5q-62 20 -119 7q-67 -16 -138 -62q1 1 1 2q9 22 22.5 41t26 31.5t31.5 25.5
t29.5 18.5t29.5 14.5t22.5 11t8.5 4.5t8.5 4l7 3t5 3t1.5 2.5q0 6 -25.5 10t-46.5 2h-3q-60 -6 -93 -43q-20 -23 -33 -56q-6 73 -31 117q-11 20 -28 33t-34 17t-26.5 5.5t-16.5 0.5q-15 -1 3 -53q4 -14 11.5 -27.5t20.5 -35t21 -35.5t29 -50q-34 40 -71 57
q-22 10 -46.5 10.5t-33 -1.5t-26.5 -8q-12 -4 -26.5 -12t-25 -15.5t-8.5 -11.5q0 -2 34 -4q4 0 25.5 -0.5t33.5 -1.5t34.5 -5.5t39 -10.5t36.5 -18.5t37 -29.5q1 -1 3 -2q-77 28 -142 28q-29 0 -56 -7.5t-34.5 -11.5t-24.5 -14q-11 -7 -23 -17t-19 -19t-4 -11q2 -1 40 9
q4 1 27 7t36.5 9.5t39.5 7.5t47 5t48.5 -1t53.5 -8q-70 -14 -101 -73q-10 -21 -11.5 -58t3 -64.5t9.5 -29.5q7 -1 15.5 19t20.5 54.5t25 54.5q30 50 62 80q-2 -37 -2.5 -68t2 -61t4 -47t8 -48.5t9 -42.5t11.5 -50v0q13 -53 29 -102v-1q1 -3 3 -8.5t2 -7.5q1 0 1 -1v-1
l13 -32h91q-10 14 -14 20q-1 3 -2 5zM376 384q7 3 20.5 6.5t42 2.5t49.5 -13q4 -3 1 -7q-1 -2 -4 -2h-3q-18 11 -45.5 11.5t-38.5 -2.5t-19 -5q-5 -2 -6.5 3t3.5 6zM276 330q-3 -2 -13.5 -11.5t-26.5 -31t-20 -43.5q-1 -4 -5 -4h-1q-5 1 -4 6q4 24 21 47.5t27 32t16 12.5
q4 3 7 -1t-1 -7zM326 423v0q-5 0 -5 5q-4 84 -72 172q-3 4 1 7t7 0q8 -10 20.5 -26.5t32 -62t21.5 -89.5q1 -5 -5 -6z" />
    <glyph glyph-name="caijing" unicode="&#xe604;" horiz-adv-x="1078" 
d="M1024 -128h-970v0v0q-22 0 -38 16t-16 38v916q0 22 16 38t38 16v0q22 0 38 -16t16 -38v-862h108h107h270h269h108h54q22 0 38 -16t16 -38t-16 -38t-38 -16zM755 249q0 45 31.5 76.5t76 31.5t76 -31.5t31.5 -76.5v-161h-215v161zM485 465q0 45 31.5 76.5t76.5 31.5
t76.5 -31.5t31.5 -76.5v-377h-216v377zM216 573q0 44 31.5 75.5t76 31.5t76 -31.5t31.5 -75.5v-485h-215v485z" />
    <glyph glyph-name="furnishing" unicode="&#xe696;" 
d="M514 890q-103 0 -196 -40t-160.5 -107.5t-107.5 -160.5t-40 -195.5t40 -196t107.5 -161t160.5 -107.5t196 -40t196 40t160.5 107.5t107.5 161t40 196t-40 195.5t-107.5 160.5t-160.5 107.5t-196 40zM770 387q-9 -11 -22 -11q-10 0 -18 7l-4 3v-228q0 -7 -5 -12.5
t-13 -5.5h-388q-7 0 -12.5 5.5t-5.5 12.5v229l-4 -4q-9 -7 -21 -6t-19.5 10t-6.5 21t10 19l234 198q9 7 19.5 7t18.5 -7l234 -198q9 -7 10 -19t-7 -21zM338 417v-241h35h-1l-2 2t-1 2v5h-2h-1v0h-0.5h-0.5h-1q-4 9 -8 19q-3 11 -2 21q0 9 7 12q5 2 10 -3q7 -6 4 -19
q7 3 16 6q30 8 59 -3q8 -3 9 -4q2 2 2 5t-1 5v5q2 4 5 6.5t6.5 2t6 -2.5t3.5 -6t1 -5v-6q-1 -3 -1 -5t-1 -5q0 -1 -0.5 -2.5t-0.5 -2.5q-1 -2 -2.5 -4.5t-1.5 -4.5l-0.5 -1.5t-1.5 -2.5l-2 -3l-0.5 -0.5l-1 -1l-0.5 -0.5h-3v-5q0 -1 -1.5 -2.5t-3.5 -1.5t-2 1h-2l-1.5 1.5
t-0.5 1.5v5h-75v-5q0 -2 -1.5 -3t-3.5 -1h148v175h99v-175h68v241l-176 149zM465 241q-2 -2 -5 -4q-2 -3 -3 -7t0 -9l-8 3q-29 10 -57 2q-8 -3 -13 -6q1 10 -3 15.5t-12 7.5q0 9 2.5 16t8.5 12q6 4 14 7t17 4q8 1 17 1q9 -1 17 -3q8 -1 15 -5q6 -3 9 -7q2 -3 4 -7t3 -8v-10z
" />
    <glyph glyph-name="jiankang" unicode="&#xe601;" 
d="M337 396h-205q-43 69 -33 150q10 83 70.5 141.5t142.5 65.5q60 5 113.5 -18t89.5 -67q33 40 80 62.5t100 23.5q94 1 164 -64.5t74 -159.5q4 -76 -37 -140h-290q-12 0 -16 -11l-24 -67l-182 219q-8 9 -19 5t-11 -16v-107q0 -7 -5 -12t-12 -5zM566 233l-161 192v-64
q0 -7 -5 -12t-12 -5h-214l1.5 -1.5t2.5 -1.5l337 -338l336 336h-209q-12 0 -16 -12l-31 -89q-4 -9 -13.5 -11t-15.5 6z" />
    <glyph glyph-name="shiliangzhinengduixiang7" unicode="&#xe8ff;" 
d="M959 641q-45 15 -84.5 19.5t-65 2t-52.5 -14t-39.5 -20t-33.5 -25.5q-5 -4 -8 -6q-119 -93 -199 -107q-48 -7 -84.5 2.5t-54.5 30t-26.5 41t-6.5 39.5q3 42 25.5 79t53.5 60.5t61.5 38t55.5 18.5q61 12 97 -1.5t48 -35.5q27 -48 -20 -88q-58 -51 -135 -61q-13 -1 -20 2.5
t-6.5 8t2.5 8.5q3 4 26 9t39.5 14t24 18t10.5 19t2.5 16.5t-1.5 11.5q-8 22 -34 28.5t-51 -3.5q-31 -10 -53 -28.5t-29.5 -38t-9.5 -39.5t7 -35q7 -15 25 -26.5t45 -16.5t66 4t81 34q49 28 78.5 59.5t37.5 59t7 48.5t-9 36q-13 26 -40.5 36t-47.5 6l-20 -3q-36 42 -93 52
t-132 -20q-106 -46 -136 -133l-6 -24q-96 -68 -90 -156q1 -29 14.5 -52t31 -36t34.5 -21.5t29 -11.5l12 -3q21 -31 59 -47q-92 -42 -159 -134q-20 -27 -52.5 -54.5t-55.5 -40.5l-23 -14l86 -32q37 26 65 53t42.5 47t36.5 44t48 43q11 8 23 15t19.5 11t23 10t19.5 7.5t24 8
t22 6.5q9 3 11 5q46 -31 10 -45q-27 -11 -40 -18t-41 -24t-54 -42.5t-51 -60.5q-20 -27 -53 -54t-55 -41l-23 -13l86 -32q37 25 65 52t42.5 47t36.5 44t48 43q11 8 23 15t19.5 11.5t23 10t19.5 7t24 8t22 7.5q8 2 11 4q46 -31 10 -45q-27 -11 -40.5 -17.5t-41 -23.5
t-53.5 -43t-52 -61q-19 -27 -52 -54t-56 -41l-23 -13l87 -32q36 25 64 52.5t42.5 47t37 43.5t48.5 43q11 8 23 15.5t19.5 11.5t23 10t19.5 7t24 7.5t22 7.5q8 3 11 4q46 -31 10 -45q-27 -11 -40.5 -17.5t-41.5 -23.5t-53.5 -42.5t-51.5 -60.5q-20 -28 -52.5 -55t-55.5 -40
l-23 -14l87 -32q36 25 64 52.5t42.5 47t37 43.5t48.5 44q21 15 46 26.5t37 15.5l48 16q77 25 -32 76q-23 11 -51 22q7 9 -2 21t-30 23.5t-39.5 19.5t-39.5 16q20 29 -104 78q119 21 203 128q21 27 43 49t43 35t38 22.5t36.5 13.5t29.5 6.5t25 1.5t15.5 -1t8.5 -1
q17 -3 18 -3t6 3q-2 5 -4.5 8.5t-4.5 4.5z" />
    <glyph glyph-name="tubiao74" unicode="&#xe64a;" horiz-adv-x="1025" 
d="M512 -128q-104 0 -199 40.5t-163.5 109t-109 163.5t-40.5 199t40.5 199t109 163.5t163.5 109t199 40.5t199 -40.5t163.5 -109t109 -163.5t40.5 -199t-40.5 -199t-109 -163.5t-163.5 -109t-199 -40.5zM512 866q-98 0 -187 -38.5t-153.5 -103t-103 -153.5t-38.5 -187
t38.5 -187t103 -153.5t153.5 -103t187 -38.5t187 38.5t153.5 103t103 153.5t38.5 187t-38.5 187t-103 153.5t-153.5 103t-187 38.5zM894 232q-8 -1 -27 -2t-30 -2q0 -37 -1 -40q-7 -45 -14.5 -58.5t-21.5 -19t-30 -1.5q-39 10 -43 44q-1 7 -5 74h-403q0 -43 -1 -46
q-5 -35 -14 -51q-8 -14 -24 -19.5t-32 -0.5q-39 12 -41 53v66h-60q0 3 -0.5 8t-0.5 8.5v6.5v172q-2 49 49 82q20 13 27 30q12 26 48 118q14 37 36 52t62 15h307q40 0 61.5 -15t35.5 -52q8 -19 22.5 -55.5t19.5 -49.5q14 -37 45 -54q33 -18 34 -53q1 -26 1 -210zM278 518h486
q-39 98 -48 119q-11 27 -40 27q-222 0 -310 -1q-9 0 -20.5 -6t-15.5 -14q-8 -17 -52 -125zM777 352q22 0 37.5 14.5t15.5 36.5q0 21 -15.5 36.5t-36.5 15.5q-20 0 -35.5 -15t-16.5 -35q0 -21 14.5 -36.5t36.5 -16.5zM260 352q25 0 40 14.5t15 37.5q1 20 -14.5 35.5
t-36.5 15.5t-36.5 -15.5t-15.5 -36.5q0 -20 14.5 -35.5t33.5 -15.5z" />
    <glyph glyph-name="1122-v2-03" unicode="&#xe62f;" horiz-adv-x="1104" 
d="M690 203q-24 92 40.5 172.5t175.5 103.5q-39 137 -150.5 224t-254.5 87q-34 0 -68 -6t-65 -16t-60 -26t-55.5 -35.5t-49 -43.5t-41.5 -50.5t-34.5 -56.5t-26 -62t-16 -67t-5.5 -70q0 -71 21.5 -137t60.5 -119.5t90.5 -93.5t116 -62t132.5 -22q96 0 179.5 41t142.5 113
q-107 32 -133 126v0zM501 186q-68 0 -116.5 50t-48.5 121q0 46 22 85.5t60.5 62t82.5 22.5q70 0 118.5 -50t48.5 -120q0 -47 -22 -86t-60.5 -62t-84.5 -23v0zM1104 648q-18 37 -38 67.5t-41 50t-42.5 34.5t-41.5 22.5t-38 13t-33.5 6t-26.5 0.5t-18 -1h-6l-66 4
q56 -74 96.5 -140.5t61.5 -113.5t34.5 -84t16 -63t2 -40t-3.5 -23q-50 26 -112 9q-58 -16 -90 -63t-19.5 -95t62.5 -71t108 -6q29 9 52.5 26.5t38.5 39.5q22 34 25 48q25 62 8.5 153t-82.5 221l-45 83zM501 449q-24 0 -44.5 -12.5t-32.5 -34t-12 -45.5q0 -38 26.5 -65.5
t63.5 -27.5t63 27.5t26 65t-26 65t-64 27.5z" />
    <glyph glyph-name="yule" unicode="&#xe641;" 
d="M509 387zM4 387q0 -103 40 -196.5t107.5 -161t161 -107.5t196.5 -40t196.5 40t161.5 107.5t108 161t40 196.5t-40 196.5t-108 161.5t-161.5 108t-196.5 40t-196.5 -40t-161 -108t-107.5 -161.5t-40 -196.5zM275 323l44 46q1 -15 6.5 -31t14 -31.5t19 -29.5t20.5 -24
q35 -34 65.5 -38t54.5 21q13 13 17 28.5t1.5 34t-9.5 39.5q-7 23 -15 45q-9 25 -15 48.5t-7 45t6 41.5t25 38q22 23 48 30t52.5 2t52 -19.5t47.5 -35.5q48 -47 59 -80l-42 -44q-9 49 -55 93q-13 12 -28 22t-30.5 13.5t-31 0t-28.5 -17.5q-12 -12 -16.5 -26t-2.5 -30.5
t8 -36.5t15 -45q10 -26 16.5 -50.5t7 -48t-6.5 -44.5t-25 -39q-23 -25 -49 -32.5t-52.5 -2.5t-52 21t-49.5 39q-7 7 -17.5 19.5t-20 26.5t-17 28t-9.5 24zM571 127l-44 45q14 1 30.5 6t32 13t29.5 17.5t25 19.5q35 35 40 65t-19 55q-13 14 -28.5 18t-34 2t-39.5 -8l-46 -14
q-25 -8 -48.5 -13.5t-45 -5.5t-41.5 7.5t-37 25.5q-22 23 -28.5 49t-1 52.5t21 51.5t36.5 46q49 47 83 57l42 -43q-49 -8 -95 -53q-12 -12 -22 -27t-14 -30.5t-1.5 -31t16.5 -28.5q12 -13 25.5 -17.5t30 -3t36.5 7t46 14.5q26 8 51 14t48.5 5.5t44 -7.5t38.5 -26
q24 -24 31 -50t1 -52.5t-22.5 -51.5t-39.5 -48q-8 -8 -21 -17.5t-27 -19t-28 -16t-25 -8.5z" />
    <glyph glyph-name="youxi" unicode="&#xe605;" 
d="M878 416q-60 0 -103 -42t-43 -100.5t43 -100.5t103.5 -42t103 42t42.5 100q-1 59 -43.5 101t-102.5 42zM947 501q-42 155 -170 249.5t-295 94.5q-166 0 -294.5 -94.5t-171 -248.5t20 -296.5t207.5 -220.5q145 -79 304.5 -57.5t276.5 135.5l-344 322zM406 634.5
q0 36.5 26.5 63t62.5 26.5q37 0 63 -26.5t26 -63t-26 -62.5t-63 -26q-36 0 -62.5 26t-26.5 62.5z" />
  </font>
</defs>
</svg>
