<?xml version="1.0" standalone="no"?>
<!DOCTYPE svg PUBLIC "-//W3C//DTD SVG 1.1//EN" "http://www.w3.org/Graphics/SVG/1.1/DTD/svg11.dtd" >
<!--
2013-9-30: Created.
-->
<svg>
<metadata>
Created by iconfont
</metadata>
<defs>

<font id="bcc-iconfont" horiz-adv-x="1024" >
  <font-face
    font-family="bcc-iconfont"
    font-weight="500"
    font-stretch="normal"
    units-per-em="1024"
    ascent="896"
    descent="-128"
  />
    <missing-glyph />
    
    <glyph glyph-name="btn-more" unicode="&#58947;" d="M461.897143 568.027429a17.206857 17.206857 0 0 1 0-23.716572l102.473143-106.276571-101.156572-104.850286a17.206857 17.206857 0 0 1 0.182857-23.515429 15.780571 15.780571 0 0 1 22.674286-0.182857l112.64 116.662857a17.28 17.28 0 0 1 0 23.753143l-113.92 118.125715a15.908571 15.908571 0 0 1-11.446857 4.937142 15.908571 15.908571 0 0 1-11.465143-4.937142"  horiz-adv-x="1024" />

    
    <glyph glyph-name="ic_delete_" unicode="&#58949;" d="M882.517333 754.517333a40.021333 40.021333 0 0 0 0-56.576L568.490667 384l314.026666-314.026667c13.653333-13.653333 15.36-34.730667 5.12-50.261333l-5.12-6.229333a40.021333 40.021333 0 0 0-56.576 0L512 327.509333l-313.856-314.026666a40.021333 40.021333 0 0 0-56.576 56.576L455.424 384l-314.026667 313.856a40.021333 40.021333 0 0 0-5.12 50.346667l5.12 6.229333a40.021333 40.021333 0 0 0 56.661334 0L512 440.576l314.026667 314.026667a40.021333 40.021333 0 0 0 56.490666 0z"  horiz-adv-x="1024" />

    
    <glyph glyph-name="ic_growth" unicode="&#58953;" d="M753.664 789.504l523.264-784.896A85.333333 85.333333 0 0 0 1205.930667-128H159.402667a85.333333 85.333333 0 0 0-70.997334 132.608L611.669333 789.504a85.333333 85.333333 0 0 0 141.994667 0z"  horiz-adv-x="1365" />

    
    <glyph glyph-name="ic_enter" unicode="&#58954;" d="M272.554667 836.096a60.245333 60.245333 0 0 1 0-83.029333l358.741333-372.053334-354.133333-366.848c-21.333333-23.04-21.077333-59.733333 0.768-82.261333 21.845333-22.698667 57.173333-23.04 79.36-0.768l394.24 408.405333a60.501333 60.501333 0 0 1 0 83.114667L352.682667 836.096A55.637333 55.637333 0 0 1 312.661333 853.333333a55.637333 55.637333 0 0 1-40.106666-17.237333"  horiz-adv-x="1024" />

    
    <glyph glyph-name="ic_drop-down" unicode="&#58955;" d="M964.096 623.445333a60.245333 60.245333 0 0 1-83.029333 0l-372.053334-358.741333-366.848 354.133333a60.245333 60.245333 0 0 1-82.261333-0.768 55.210667 55.210667 0 0 1-0.768-79.36l408.405333-394.24c23.04-22.016 60.16-22.016 83.114667 0l413.44 398.762667a55.637333 55.637333 0 0 1 17.237333 40.106667 55.637333 55.637333 0 0 1-17.237333 40.106666"  horiz-adv-x="1024" />

    
    <glyph glyph-name="ic_fans_" unicode="&#58957;" d="M797.3376 248.6784c69.4272 0 124.2624-58.7776 124.2624-129.28 0-33.1264-7.2704-54.1696-30.5664-85.0944-9.0624-11.9296-26.624-27.8016-53.2992-49.6128l-7.68-6.1952a4829.184 4829.184 0 0 0-56.576-44.3904 37.7856 37.7856 0 0 0-7.936-5.12c-7.168-3.3792-15.5136-5.7856-24.064-5.7856-8.6016 0-16.9984 2.4064-24.1152 5.7856l-6.2976 3.7888A1894.4 1894.4 0 0 0 656.9984-25.6c-32.9216 26.368-55.0912 46.08-64.768 59.4432-23.6544 30.0544-30.9248 51.2-30.9248 85.5552 0 70.5024 54.8352 129.28 124.2624 129.28 19.712 0 38.8096-4.608 55.8592-13.312 17.1008 8.704 36.1984 13.312 55.9104 13.312zM504.064 844.8c152.0128 0 275.0976-122.0608 275.0976-272.5376a271.6672 271.6672 0 0 0-123.2896-227.328c13.7728-5.4784 27.2384-11.776 40.3456-18.8416 18.2784-9.8304 25.088-32.4608 15.0528-50.5344a37.9904 37.9904 0 0 0-51.2-14.848 327.3728 327.3728 0 0 1-155.5968 39.0144c-180.3264 0-326.6048-144.896-326.6048-323.584 0-20.5824-16.896-37.2736-37.7344-37.2736A37.4784 37.4784 0 0 0 102.4-23.8592c0 166.6048 103.424 309.2992 250.1632 368.64a271.5136 271.5136 0 0 0-123.5968 227.4816C228.9664 722.7392 352.1024 844.8 504.064 844.8z m293.2736-670.6176a45.6704 45.6704 0 0 1-30.6688-11.3664 38.144 38.144 0 0 0-50.432 0 45.6704 45.6704 0 0 1-30.6688 11.3664c-26.2656 0-48.7936-24.1152-48.7936-54.784 0-17.8688 1.7408-22.9888 15.872-41.0112 5.0176-6.8096 24.9344-24.576 51.9168-46.1312 12.7488-10.24 25.088-19.7632 36.608-28.5184a3973.12 3973.12 0 0 1 41.1136 32.4096l7.2704 5.888c21.6576 17.7152 37.0176 31.5904 41.0112 36.864 13.6704 18.0736 15.5648 23.552 15.5648 40.4992 0 30.6688-22.528 54.784-48.7936 54.784zM504.064 770.304c-110.1824 0-199.5776-88.576-199.5776-198.0416s89.3952-198.0928 199.5776-198.0928c110.2336 0 199.68 88.6272 199.68 198.0928 0 109.4144-89.4464 198.0416-199.68 198.0416z"  horiz-adv-x="1024" />

    
    <glyph glyph-name="kefu" unicode="&#58958;" d="M103.367111 345.827556v-93.184a69.745778 69.745778 0 0 1 139.491556 0V345.827556a69.745778 69.745778 0 1 1-139.491556 0z m641.024-177.720889a115.768889 115.768889 0 0 0-36.579555 84.536889V345.827556c0.056889 63.829333 51.598222 115.655111 115.484444 116.110222a325.518222 325.518222 0 0 1-649.329778 0A116.280889 116.280889 0 0 0 289.336889 345.884444v-93.184a116.224 116.224 0 0 0-232.448 0V345.827556c0 46.250667 27.534222 88.177778 69.973333 106.552888a371.996444 371.996444 0 0 0 743.480889 0 116.280889 116.280889 0 0 0 69.973333-106.552888v-93.184a116.224 116.224 0 0 0-155.249777-109.454223 395.434667 395.434667 0 0 0-158.663111-101.831111 81.351111 81.351111 0 0 0-81.521778-79.246222h-69.404445a81.351111 81.351111 0 1 0 0.056889 162.702222h69.290667c29.354667 0 55.068444-15.303111 69.404444-38.4a348.842667 348.842667 0 0 1 130.161778 81.692445z m9.898667 177.720889v-93.184a69.745778 69.745778 0 0 1 139.491555 0V345.827556a69.745778 69.745778 0 1 1-139.491555 0z m-278.755556-337.180445h69.347556a34.816 34.816 0 1 1 0 69.745778H475.591111a34.816 34.816 0 1 1 0-69.745778z"  horiz-adv-x="1024" />

    
    <glyph glyph-name="ic_info-circle" unicode="&#58959;" d="M512-128A512 512 0 1 0 512 896a512 512 0 0 0 0-1024z m0 365.714286a36.571429 36.571429 0 0 1 36.571429 36.571428v365.714286a36.571429 36.571429 0 1 1-73.142858 0v-365.714286A36.571429 36.571429 0 0 1 512 237.714286z m0-146.285715a36.571429 36.571429 0 1 1 0 73.142858 36.571429 36.571429 0 0 1 0-73.142858z"  horiz-adv-x="1024" />

    
    <glyph glyph-name="ic_download_" unicode="&#58961;" d="M51.2 332.8m51.2 0l0 0q51.2 0 51.2-51.2l0-204.8q0-51.2-51.2-51.2l0 0q-51.2 0-51.2 51.2l0 204.8q0 51.2 51.2 51.2ZM870.4 332.8m51.2 0l0 0q51.2 0 51.2-51.2l0-204.8q0-51.2-51.2-51.2l0 0q-51.2 0-51.2 51.2l0 204.8q0 51.2 51.2 51.2ZM972.8 128m0-51.2l0 0q0-51.2-51.2-51.2l-819.2 0q-51.2 0-51.2 51.2l0 0q0 51.2 51.2 51.2l819.2 0q51.2 0 51.2-51.2ZM460.8 844.8m51.2 0l0 0q51.2 0 51.2-51.2l0-358.4q0-51.2-51.2-51.2l0 0q-51.2 0-51.2 51.2l0 358.4q0 51.2 51.2 51.2ZM500.4288 243.6096L355.072 409.7024A15.36 15.36 0 0 0 366.6432 435.2h290.7136a15.36 15.36 0 0 0 11.5712-25.4976l-145.408-166.0928a15.36 15.36 0 0 0-23.04 0z"  horiz-adv-x="1024" />

    
    <glyph glyph-name="ic_pull" unicode="&#58964;" d="M964.096 144.554667a60.245333 60.245333 0 0 0-83.029333 0l-372.053334 358.741333-366.848-354.133333a60.245333 60.245333 0 0 0-82.261333 0.768 55.210667 55.210667 0 0 0-0.768 79.36l408.405333 394.24a60.501333 60.501333 0 0 0 83.114667 0l413.44-398.762667c11.093333-10.581333 17.237333-25.088 17.237333-40.106667a55.637333 55.637333 0 0 0-17.237333-40.106666"  horiz-adv-x="1024" />

    
    <glyph glyph-name="ic_Placed" unicode="&#58965;" d="M964.096 144.554667a60.245333 60.245333 0 0 0-83.057778 0L509.155556 503.296l-366.933334-354.076444a60.302222 60.302222 0 0 0-82.318222 0.682666 55.182222 55.182222 0 0 0-0.682667 79.416889l408.348445 394.126222a60.472889 60.472889 0 0 0 83.171555 0l413.411556-398.677333c11.036444-10.638222 17.237333-25.031111 17.237333-40.106667 0-15.018667-6.257778-29.468444-17.237333-40.106666"  horiz-adv-x="1024" />

    
    <glyph glyph-name="ic_help" unicode="&#58966;" d="M512 870.4a486.4 486.4 0 1 0 0-972.8 486.4 486.4 0 0 0 0 972.8z m0-51.2a435.2 435.2 0 1 1 0-870.4 435.2 435.2 0 0 1 0 870.4z m-4.9664-628.224c18.3296 0 33.1776-14.1312 33.1776-31.488 0-17.408-14.848-31.488-33.1776-31.488-18.2784 0-33.1264 14.08-33.1264 31.488 0 17.408 14.848 31.4368 33.1264 31.4368zM518.656 640c91.4432-1.4336 158.72-81.3568 145.2032-172.9536-6.0928-41.0624-23.5008-63.3856-63.7952-93.696l-9.0112-6.656-1.8432-1.28c-19.968-14.4896-28.3648-21.504-35.9424-30.8224-13.8752-17.152-20.6336-38.7072-20.0192-65.6384a26.88 26.88 0 0 0-27.0336-26.7776 27.0336 27.0336 0 0 0-28.2112 25.6512c-0.8704 38.4 9.5232 71.68 31.488 98.816 10.0352 12.3392 19.712 20.8896 37.888 34.3552l8.3456 6.144 1.8432 1.28c36.096 26.112 47.616 39.4752 51.5584 65.9456 9.0624 61.1328-33.9968 112.2816-91.392 113.152-62.0032 1.024-105.8816-37.6832-104.0384-96.6656a26.88 26.88 0 0 0-26.7776-26.9824 27.0336 27.0336 0 0 0-28.416 25.4464C355.6864 579.2768 426.1376 641.3824 518.656 640z"  horiz-adv-x="1024" />

    
    <glyph glyph-name="ic_laboratory_" unicode="&#58967;" d="M278.784 324.9664V718.2336l497.7664-0.3584-139.1616-196.2496 139.1616-196.352-497.7664-0.3072z m578.56 15.3088l-128.512 181.3504 128.512 181.3504c14.08 19.9168 16.7936 42.1376 7.3728 60.9792C855.296 782.848 836.096 793.6 811.9808 793.6H278.9376C238.08 793.6512 204.9536 759.9616 204.8 718.2336V-38.912c0-20.8896 16.5888-37.8368 37.0176-37.8368 20.4288 0 36.9664 16.896 36.9664 37.888v288.512H812.032c24.2176 0 43.52 10.752 52.8896 29.5936 9.3696 18.7904 6.656 41.0624-7.5776 61.0816z"  horiz-adv-x="1024" />

    
    <glyph glyph-name="icon_action_recommend_p_" unicode="&#58968;" d="M232.704 520.192v-601.6H162.624a115.968 115.968 0 0 0-116.096 115.712V404.352c0 64 52.032 115.84 116.096 115.84h70.08zM572.992 839.68c50.496-24.384 83.84-86.016 83.84-168.32 0-49.152-6.144-99.584-18.432-151.296h222.72a116.352 116.352 0 0 0 112.96-144.192l-73.472-298.048a209.472 209.472 0 0 0-203.328-159.36H302.464V521.6l8.256 2.944c89.344 35.904 140.288 121.344 152.896 260.352 5.056 56.128 58.432 79.36 109.376 54.848z"  horiz-adv-x="1024" />

    
    <glyph glyph-name="icon_into_history_gray_" unicode="&#58969;" d="M512 0c-211.2 0-384 172.8-384 384s172.8 384 384 384 384-172.8 384-384-172.8-384-384-384M512 832C265.6 832 64 630.4 64 384s201.6-448 448-448 448 201.6 448 448-201.6 448-448 448m32-435.2V640a32.064 32.064 0 0 1-64 0v-256c0-12.8 6.4-19.2 12.8-25.6l179.2-179.2c12.8-12.8 32-12.8 44.8 0 12.8 12.8 12.8 35.2 0 44.8L544 396.8z"  horiz-adv-x="1024" />

    
    <glyph glyph-name="icon_control_comment_" unicode="&#58970;" d="M652.194909 768c192.744727 0 350.487273-151.412364 350.487273-336.477091 0-185.018182-157.742545-336.430545-350.487273-336.430545h-19.223273l-183.575272-168.215273-50.036364 168.215273h-27.554909c-192.744727 0-350.487273 151.412364-350.487273 336.430545 0 185.064727 157.742545 336.477091 350.487273 336.477091z m0-67.304727H371.805091c-154.577455 0-280.389818-120.738909-280.389818-269.172364 0-148.386909 125.812364-269.125818 280.389818-269.125818h80.384l14.568727-48.872727 18.152727-61.114182 99.653819 91.368727 20.340363 18.618182h47.290182c154.577455 0 280.389818 120.738909 280.389818 269.125818 0 148.433455-125.812364 269.172364-280.389818 269.172364z"  horiz-adv-x="1024" />

    
    <glyph glyph-name="icon_tasklist_about_" unicode="&#58971;" d="M512 802.929778A418.702222 418.702222 0 0 0 930.929778 384 418.702222 418.702222 0 0 0 512-34.929778 418.702222 418.702222 0 0 0 93.070222 384 418.702222 418.702222 0 0 0 512 802.929778z m0-46.592A372.053333 372.053333 0 0 1 139.662222 384 372.053333 372.053333 0 0 1 512 11.662222 372.053333 372.053333 0 0 1 884.337778 384 372.053333 372.053333 0 0 1 512 756.337778z m0.568889-290.872889c15.644444 0 28.444444-15.075556 28.444444-33.621333v-235.292445c0-18.602667-12.8-33.621333-28.444444-33.621333-15.758222 0-28.444444 15.018667-28.444445 33.564444V431.900444c0 18.545778 12.686222 33.564444 28.444445 33.564445z m0 139.605333c15.644444 0 28.444444-13.880889 28.444444-31.004444v-31.061334c0-17.066667-12.8-31.004444-28.444444-31.004444-15.758222 0-28.444444 13.880889-28.444445 31.004444v31.061334c0 17.123556 12.686222 31.004444 28.444445 31.004444z"  horiz-adv-x="1024" />

    
    <glyph glyph-name="icon_action_recommend_line_n_" unicode="&#58972;" d="M162.88-81.92A115.968 115.968 0 0 0 46.72 33.92V404.032c0 64 52.032 115.84 116.16 115.84h136.192c96.768 33.024 151.68 119.68 164.8 264.832 5.12 56.128 58.56 79.424 109.44 54.848 50.56-24.384 83.84-86.016 83.84-168.32 0-49.216-6.144-99.648-18.368-151.36h222.72a116.416 116.416 0 0 0 113.024-144.256L901.12 77.44a209.536 209.536 0 0 0-203.392-159.36H162.88zM232.96 450.048H162.88c-25.6 0-46.336-20.672-46.336-46.016v-370.112c0-25.344 20.736-46.016 46.336-46.016l70.08 0.064v462.08z m300.48 328.384c-15.36-169.6-85.248-281.536-211.84-324.672l-10.944-3.712h-7.872v-462.08h394.88a139.712 139.712 0 0 1 135.616 106.24l73.472 298.112a46.592 46.592 0 0 1-45.248 57.728H550.4l20.416 85.952a584.96 584.96 0 0 1 16.512 135.232c0 55.68-19.2 93.248-44.352 105.408l-6.336 3.2c-3.456 1.728-2.944 1.28-3.2-1.408z"  horiz-adv-x="1024" />

    
    <glyph glyph-name="icon_close_x" unicode="&#58973;" d="M512-128c282.763636 0 512 229.236364 512 512S794.763636 896 512 896 0 666.763636 0 384s229.236364-512 512-512z m0 23.272727C242.082909-104.727273 23.272727 114.082909 23.272727 384S242.082909 872.727273 512 872.727273s488.727273-218.810182 488.727273-488.727273-218.810182-488.727273-488.727273-488.727273zM684.8 545.163636a11.636364 11.636364 0 0 0 0-16.453818l-148.107636-148.107636 164.538181-164.584727a11.636364 11.636364 0 1 0-16.430545-16.453819l-164.538182 164.584728-164.608-164.584728a11.636364 11.636364 0 1 0-16.453818 16.453819l164.584727 164.584727-164.584727 164.538182a11.636364 11.636364 0 1 0 16.453818 16.477091l164.584727-164.538182 148.107637 148.084363a11.636364 11.636364 0 0 0 16.453818 0z"  horiz-adv-x="1024" />

    
    <glyph glyph-name="icon_dingdao_zhuzhan" unicode="&#58974;" d="M326.703522 878.077996L463.256385 746.322073a60.761227 60.761227 0 0 0 8.698449-10.553265h204.093762a60.761227 60.761227 0 0 0 8.762409 10.553265L821.299908 878.077996a63.959186 63.959186 0 0 0 88.839309 0l0.83147-0.831469 1.53502-1.53502a60.633308 60.633308 0 0 0-1.53502-85.70531l-56.284084-54.17343H895.428605a255.836744 255.836744 0 0 0 255.836744-255.836744V127.836744a255.836744 255.836744 0 0 0-255.836744-255.836744H255.836744a255.836744 255.836744 0 0 0-255.836744 255.836744V479.996023a255.836744 255.836744 0 0 0 255.836744 255.836744h37.480083l-56.220124 54.17343a60.633308 60.633308 0 0 0 0 87.24033L237.928172 878.077996a63.959186 63.959186 0 0 0 88.77535 0zM895.428605 612.391538H255.836744a127.918372 127.918372 0 0 1-127.598576-118.324495L127.918372 484.409206v-361.177523a127.918372 127.918372 0 0 1 118.324494-127.534617l9.593878-0.383755h639.591861a127.918372 127.918372 0 0 1 127.598576 118.388453l0.319796 9.593878V484.409206a127.918372 127.918372 0 0 1-127.918372 127.918372zM383.755116 427.293653a63.959186 63.959186 0 0 0 63.959186-63.959186v-57.179512a63.959186 63.959186 0 0 0-127.918372 0v57.179512a63.959186 63.959186 0 0 0 63.959186 63.959186z m383.755117 0a63.959186 63.959186 0 0 0 63.959186-63.959186v-57.179512a63.959186 63.959186 0 0 0-127.918373 0v57.179512a63.959186 63.959186 0 0 0 63.959187 63.959186z"  horiz-adv-x="1152" />

    
    <glyph glyph-name="icon_tasklist_feedback_" unicode="&#58975;" d="M162.929778 756.337778h418.872889c61.383111 0 111.616-47.445333 116.053333-107.633778l0.341333-8.704v-162.929778a23.324444 23.324444 0 0 0-46.08-4.664889l-0.455111 4.664889V640c0 36.124444-27.477333 65.877333-62.691555 69.404444l-7.168 0.398223H162.929778c-36.181333 0-65.877333-27.477333-69.461334-62.691556l-0.398222-7.111111v-558.535111c0-36.181333 27.477333-65.877333 62.691556-69.461333l7.168-0.341334h302.535111a23.324444 23.324444 0 0 0 4.664889-46.08l-4.664889-0.512H162.929778a116.394667 116.394667 0 0 0-116.053334 107.690667l-0.341333 8.704V640c0 61.326222 47.502222 111.616 107.690667 116.053333l8.704 0.284445h418.872889z m719.075555-217.713778l3.015111-2.048 58.538667-34.304c31.857778-18.602667 43.235556-59.676444 25.6-92.444444l-188.245333-352.711112-155.534222-68.778666-20.309334 171.804444 185.287111 350.663111a67.128889 67.128889 0 0 0 91.648 27.875556z m-46.990222-53.475556v-0.113777l-178.858667-335.189334 10.126223-85.902222 78.449777 34.702222 180.849778 335.928889a17.294222 17.294222 0 0 1-6.428444 23.04l-61.155556 34.304a16.782222 16.782222 0 0 1-22.983111-6.826666z m-453.802667-295.765333a27.875556 27.875556 0 1 0 0-55.808 27.875556 27.875556 0 0 0 0 55.808z m9.784889 398.449778c77.027556-1.251556 133.688889-72.135111 122.311111-153.429333-5.006222-35.783111-19.285333-55.523556-51.939555-81.692445l-9.386667-7.338667-1.536-1.137777c-16.839111-12.856889-23.893333-19.057778-30.321778-27.306667-11.662222-15.246222-17.351111-34.360889-16.839111-58.311111a23.324444 23.324444 0 1 0-46.535111-0.967111c-0.739556 34.076444 8.021333 63.601778 26.510222 87.608889 8.305778 10.808889 16.270222 18.261333 31.004445 29.809777l7.964444 6.144 1.536 1.137778c30.378667 23.267556 40.163556 35.043556 43.463111 58.538667 7.623111 54.272-28.672 99.612444-77.027555 100.408889-52.224 0.853333-89.144889-33.450667-87.608889-85.731556a23.324444 23.324444 0 1 0-46.535111-1.422222c-2.332444 79.815111 57.002667 134.997333 134.940444 133.688889z"  horiz-adv-x="1024" />

    
    <glyph glyph-name="tag_" unicode="&#58976;" d="M747.463654 731.116505l98.41992 99.955885a37.965908 37.965908 0 0 1 0 53.128641 36.626861 36.626861 0 0 1-52.222815 0l-150.721503-153.084526H511.988382L360.636739 884.870554a36.705629 36.705629 0 0 1-52.656035 0 38.241594 38.241594 0 0 1 0-53.522478l98.695606-100.231571h-207.94605C89.007211 731.116505 0 640.809631 0 529.393082v-453.897392c0-111.377165 89.007211-201.684039 198.690876-201.684039h744.824944c109.604897 0 198.612108 90.306874 198.612109 201.644655V529.432466c0 111.416549-89.007211 201.723422-198.612109 201.723422h-196.052166zM418.767113 344.132055c-2.993163 93.378804 50.962536 165.175329 150.445816 165.175329 75.892432 0 142.254003-47.851222 142.254003-127.800177 0-123.743654-133.313898-133.668351-193.767911-217.673829h196.130934v-71.205769h-304.554319c0 95.111688 59.272501 134.18034 130.950874 182.661701 36.114873 25.087431 87.077409 49.623489 87.077409 99.798351 0 39.108036-26.03264 63.013955-62.22628 63.013954-49.74164 0-65.770815-50.805001-65.770816-93.96956h-80.53971z"  horiz-adv-x="1142" />

    
    <glyph glyph-name="logo" unicode="&#58977;" d="M1748.519385 578.363077c5.907692-0.984615 52.342154 9.373538 54.311384 5.907692 2.953846-4.411077 23.670154-153.481846 18.274462-154.466461-5.435077-1.024-43.953231-9.885538-43.953231-9.885539-2.953846 20.243692-28.120615 145.604923-28.632615 158.444308m74.043077 14.336l20.243692-160.452923a2344.448 2344.448 0 0 1 56.280615 3.938461c-5.907692 60.731077-16.305231 156.514462-16.305231 156.514462-19.731692 3.938462-40.448 3.938462-60.219076 0m-39.975385-222.641231s91.332923 23.197538 124.376615 11.815385c16.817231-60.691692 47.419077-401.329231 50.372923-415.113846-20.716308-2.481231-88.851692-8.428308-94.286769-9.885539-4.450462 25.678769-80.462769 396.878769-80.462769 413.144616m338.156308 204.406153c5.435077-1.496615 53.799385 4.923077 54.311384 1.496616 0.984615-11.854769 5.907692-155.017846 0.472616-155.529846l-43.913847-3.938462c-1.024 19.731692-11.854769 144.659692-10.870153 157.971692m74.515692 3.938462l3.938461-158.444308c10.397538 0 51.869538-2.481231 56.32-1.969231-0.984615 60.691692 0 156.475077 0 156.475077a272.738462 272.738462 0 0 1-60.258461 3.938462m-63.645539-212.755692s93.262769 12.327385 124.849231-2.481231c6.931692-71.089231 5.947077-402.313846 6.931693-416.137846-21.228308 0-88.851692-0.984615-94.28677-1.969231-0.984615 25.678769-38.990769 404.283077-37.494154 420.627692M1914.88 772.844308c53.799385-274.510769 94.798769-743.463385 96.256-773.553231 0 0 42.456615-0.984615 90.348308-3.938462-28.120615 295.660308-62.700308 768.118154-62.227693 783.399385-11.815385 13.351385-124.376615-5.907692-124.376615-5.907692M1796.411077 123.667692c-10.358154 77.036308-285.814154 164.391385-440.832 136.27077 0 0-19.259077 169.826462-26.663385 334.178461-6.419692 141.193846-0.984615 278.449231 0.512 301.134769-10.397538 7.404308-121.934769-45.883077-182.19323-68.135384 0 0 72.073846-305.073231 124.416-937.905231 0 0 83.416615-8.900923 226.579692 18.747077 143.163077 27.648 312.477538 114.018462 298.141538 215.709538m-336.620307-138.712615l-24.221539 174.276923c5.907692 2.953846 154.545231-52.342154 170.338462-62.227692-2.481231-10.830769-146.116923-112.049231-146.116923-112.049231M601.284923 578.363077c5.907692-0.984615 52.302769 9.373538 54.272 5.907692 2.993231-4.411077 23.709538-153.481846 18.274462-154.466461-5.435077-1.024-43.913846-9.885538-43.913847-9.885539-2.993231 20.243692-28.16 145.604923-28.632615 158.444308m74.043077 14.336l20.243692-160.452923a2344.448 2344.448 0 0 1 56.280616 3.938461c-6.419692 60.731077-16.305231 156.514462-16.305231 156.514462-19.731692 3.938462-40.487385 3.938462-60.258462 0m-39.975384-222.641231s91.372308 23.197538 124.455384 11.815385c16.738462-60.691692 47.340308-401.329231 50.333539-415.113846-20.755692-2.481231-88.891077-8.428308-94.286769-9.885539-4.450462 25.678769-80.502154 396.878769-80.502154 413.144616m338.156307 204.406153c5.435077-1.496615 53.838769 4.923077 54.35077 1.496616 0.945231-11.854769 5.907692-155.017846 0.472615-155.529846l-43.953231-3.938462c-0.984615 19.731692-11.342769 144.659692-10.870154 157.971692m74.555077 3.938462l3.938462-158.444308c10.397538 0 51.830154-2.481231 56.32-1.969231-1.024 60.691692 0 156.475077 0 156.475077a306.372923 306.372923 0 0 1-60.258462 3.938462m-63.684923-212.755692s93.341538 12.327385 124.888616-2.481231c6.931692-71.089231 5.907692-402.313846 6.931692-416.137846-21.267692 0-88.851692-0.984615-94.286769-1.969231-0.512 25.678769-38.990769 404.283077-37.533539 420.627692m-216.694154 407.236923c53.799385-274.510769 94.759385-743.463385 96.256-773.55323 0 0 42.456615-0.984615 90.348308-3.938462-28.16 295.660308-62.700308 768.118154-62.227692 783.911385-11.815385 12.839385-124.376615-6.419692-124.376616-6.419693M649.137231 123.667692c-10.358154 77.036308-285.814154 164.391385-440.832 136.27077 0 0-19.219692 169.826462-26.624 334.178461-6.419692 141.193846-0.984615 278.449231 0.472615 301.134769C171.795692 902.222769 60.258462 849.408 0 827.155692c0 0 72.073846-305.073231 124.416-937.90523 0 0 83.416615-8.900923 226.579692 18.747076 143.163077 27.648 312.477538 114.018462 298.141539 215.709539M312.477538-14.966154l-24.182153 174.276923c5.907692 2.953846 154.505846-52.342154 170.299077-62.227692-2.441846-10.830769-146.116923-112.049231-146.116924-112.049231M2520.615385 411.372308c79.241846 77.863385 141.508923 176.876308 186.761846 297.038769l10.200615 20.046769c58.88-11.145846 101.888-21.149538 129.063385-30.050461l-3.426462-10.003693c-4.529231-6.695385-7.876923-13.390769-10.161231-20.046769 22.606769-20.007385 66.756923-50.018462 132.411077-90.112 15.872-8.900923 26.033231-14.454154 30.562462-16.699077-20.361846-26.663385-36.233846-57.816615-47.537231-93.420308v-190.227692c2.284308-40.093538-5.632-63.448615-23.748923-70.104615-11.342769-8.940308-57.737846-13.390769-139.264-13.390769 0 40.054154-4.489846 71.207385-13.548308 93.459692 54.350769-2.205538 76.957538 8.900923 67.899077 33.398154v60.061538h-105.275077v-260.332308c-6.774154-35.603692 10.200615-50.057846 50.924308-43.401846h30.562462c36.233846-8.900923 55.492923 15.596308 57.737846 73.452308 40.763077-17.801846 74.712615-27.805538 101.888-30.050462-9.058462-64.512-20.361846-102.360615-33.949539-113.467076-11.342769-15.596308-43.008-22.252308-95.074461-20.04677h-81.526154c-101.888-6.695385-147.140923 32.295385-135.837539 116.81477v273.723076l-33.949538-33.398153A348.278154 348.278154 0 0 1 2520.615385 411.372308z m648.62523-313.737846V715.106462h78.099693c24.891077 0 37.336615-1.102769 37.336615-3.347693v-16.699077a145.565538 145.565538 0 0 1-6.774154-46.710154v-620.819692c18.116923-51.2-39.620923-74.555077-173.174154-70.104615-4.529231 40.054154-15.872 74.555077-33.988923 103.502769 81.526154-4.450462 114.333538 7.758769 98.461539 36.706462z m-468.676923 377.147076h220.75077c-33.949538 24.497231-80.344615 62.306462-139.224616 113.467077a99.643077 99.643077 0 0 1-10.161231-13.351384c-33.988923-51.160615-57.737846-84.519385-71.325538-100.115693z m302.276923 156.868924h78.099693c22.646154 2.244923 33.949538 0 33.949538-6.695385a29.223385 29.223385 0 0 0-3.387077-13.312 203.854769 203.854769 0 0 1-3.387077-40.054154v-450.599385h-105.275077V631.650462z m383.724308-303.734154c76.996923 97.910154 131.308308 234.732308 163.012923 410.54523 29.420308-4.450462 72.467692-16.699077 129.024-36.706461v-6.695385c-4.529231-11.106462-15.832615-36.706462-33.949538-76.760615-13.587692-33.358769-23.748923-58.958769-30.562462-76.760615v-580.765539h-101.888v373.838769c-24.891077-37.809231-47.537231-67.859692-67.899077-90.112-13.587692 24.457846-32.846769 52.263385-57.737846 83.416616z m258.087385 70.104615c74.712615 91.214769 126.818462 204.721231 156.199384 340.440615 56.635077-13.351385 98.461538-25.6 125.636923-36.706461v-6.695385c2.284308-4.450462-4.489846-18.904615-20.361846-43.362461a1088.590769 1088.590769 0 0 1-27.175384-56.753231h312.438153v-90.112h-264.861538v-106.811077h210.550154v-93.459692h-210.550154v-103.463385h237.686154v-93.459692h-237.686154V-49.230769h-108.701538V481.476923c-18.116923-35.603692-44.110769-79.005538-78.099693-130.205538a99.643077 99.643077 0 0 0-10.161231-13.312c-22.646154 24.457846-50.963692 44.504615-84.91323 60.061538z m672.374154-220.278154V568.241231h278.44923V731.805538c108.701538 0 155.096615-1.142154 139.264-3.347692 0-2.244923-1.142154-6.695385-3.387077-13.390769-6.813538-15.556923-10.200615-36.667077-10.200615-63.409231v-83.416615h295.463385v-380.494769h-125.636923v50.057846h-169.826462v-283.687385h-122.249846v283.687385h-166.4v-60.061539h-115.475692z m115.475692 297.038769v-146.86523h166.4v146.904615h-166.4z m458.436923-146.86523v146.904615h-169.747692v-146.904615h169.747692z m672.413538 100.155077c-27.175385 77.863385-67.938462 153.521231-122.249846 226.934153 15.832615 8.900923 48.64 23.394462 98.461539 43.401847 6.813538 2.244923 11.342769 3.347692 13.587692 3.347692a2003.180308 2003.180308 0 0 0 125.636923-223.625846c-67.899077-28.947692-106.377846-45.607385-115.436308-50.057846z m-186.80123-373.83877V494.828308h40.763077c27.175385 0 52.066462-1.142154 74.712615-3.347693 13.587692 2.205538 15.832615-7.798154 6.774154-30.050461-4.529231-17.801846-6.774154-37.809231-6.774154-60.061539v-300.386461c2.244923-13.390769 11.303385-21.149538 27.175385-23.394462h98.461538c27.175385-2.205538 44.150154 34.500923 50.963692 110.15877 47.537231-15.596308 88.260923-26.702769 122.249846-33.398154 4.529231-129.024-44.150154-186.88-146.038153-173.528616h-173.174154c-70.183385-4.450462-101.888 20.007385-95.113846 73.412923z m451.662769 76.8c-38.478769 126.818462-87.158154 222.483692-145.998769 286.995693a3960.280615 3960.280615 0 0 0 115.436307 60.100923c49.821538-77.902769 99.643077-176.915692 149.425231-297.078154-13.587692-4.450462-37.336615-14.454154-71.286154-30.011077-29.459692-13.390769-45.292308-20.046769-47.576615-20.046769z m-685.961846 0a1340.809846 1340.809846 0 0 1 84.91323 337.092923c2.244923 0 22.606769-2.244923 61.124924-6.695384l61.124923-10.003692c-24.930462-124.612923-53.208615-240.324923-84.913231-347.136-2.284308 0-6.774154 1.142154-13.587692 3.347692-72.467692 13.351385-108.701538 21.149538-108.701539 23.355077z"  horiz-adv-x="5947" />

    
    <glyph glyph-name="ic_interactive_" unicode="&#58978;" d="M521.3184 742.4c166.4512 0 305.2032-123.8016 321.536-284.928a36.9152 36.9152 0 0 0-33.6384-40.1408 37.3248 37.3248 0 0 0-41.0624 32.9216c-12.4928 123.648-119.04 218.7264-246.784 218.7264H323.072c-136.96 0-248.064-108.8-248.064-243.0464v-1.4336c0-126.208 98.6624-231.1168 226.0992-242.0736a37.0176 37.0176 0 0 0 34.2016-36.608v-39.8336l66.0992 64.7168a37.888 37.888 0 0 0 26.3168 10.752l199.3728 1.1264a37.12 37.12 0 0 0 37.6832-38.4512l0.0512-1.8432v-24.7808c0-9.984 4.7616-19.4048 12.8-25.6l4.352-2.8672 107.4176-59.9552c9.2672-5.12 20.4288-5.888 30.208-2.2016l4.7616 2.2016 107.4688 59.9552c9.1136 5.12 15.2064 13.824 16.7424 23.552l0.4096 4.9152v119.9616a32.4096 32.4096 0 0 1-12.8512 25.6l-4.3008 2.8672-107.4688 59.904a36.096 36.096 0 0 1-30.208 2.2528l-4.7616-2.2016-107.4176-59.9552a33.024 33.024 0 0 1-16.7424-23.552l-0.768-9.9328a37.2736 37.2736 0 0 0-37.1712-31.744 37.12 37.12 0 0 0-37.4784 36.7616c0 35.1744 17.92 67.84 47.36 87.552l7.6288 4.7104 107.4688 59.904a112.5888 112.5888 0 0 0 100.6592 4.352l8.6016-4.3008 107.4688-59.9552c31.3856-17.5104 51.712-48.8448 54.6304-83.5584l0.3584-8.704v-119.9616c0-35.1744-17.92-67.84-47.4112-87.552l-7.5776-4.7104-107.4688-59.9552a112.5888 112.5888 0 0 0-100.6592-4.3008l-8.6016 4.3008-107.52 59.9552a106.1888 106.1888 0 0 0-54.5792 83.5584l-0.0512 0.1536-146.5344-0.8192L368.64 34.7136a64.4608 64.4608 0 0 0-89.7536 0 61.4912 61.4912 0 0 0-18.5856 43.9296v35.328C111.104 142.7968 0 271.7184 0 424.5504v1.4336C0 600.7296 144.64 742.4 323.072 742.4z m285.5936-481.1776c49.8176 0 90.5216-40.2432 90.5216-90.2656 0-50.0224-40.704-90.2656-90.5216-90.2656a90.4192 90.4192 0 0 0-90.5728 90.2656c0 50.0224 40.704 90.2656 90.5728 90.2656z m0-46.8992a44.032 44.032 0 0 1-44.6464-43.3664 44.032 44.032 0 0 1 44.6464-43.3664 44.032 44.032 0 0 1 44.6464 43.3664 44.032 44.032 0 0 1-44.6464 43.3664z"  horiz-adv-x="1024" />

    
    <glyph glyph-name="tag_1" unicode="&#58979;" d="M742.302959 735.919657L840.053168 832.960961a36.232954 36.232954 0 0 1 0 51.592576 36.902476 36.902476 0 0 1-51.868262 0l-149.657854-148.63388H508.442869L358.154876 885.183675a37.020627 37.020627 0 0 1-52.301482 0 36.548023 36.548023 0 0 1 0-51.947029l98.025895-97.316989H197.312066C88.376901 735.919657 0 648.212278 0 540.025402v-440.702998C0-8.785704 88.376901-96.493083 197.312066-96.493083h739.664255c108.895781 0 197.272683 87.70738 197.272682 195.815487V540.025402c0 108.186875-88.376901 195.894255-197.272682 195.894255h-194.673362zM638.015064 139.808792h-84.399153v245.163196H448.973564v57.89396c58.878551-1.654113 112.400926 17.250037 121.853 75.025845H638.015064v-378.083001z"  horiz-adv-x="1142" />

    
    <glyph glyph-name="tag_2" unicode="&#58980;" d="M747.463654 731.116505l98.41992 99.955885a37.965908 37.965908 0 0 1 0 53.128641 36.626861 36.626861 0 0 1-52.222815 0l-150.721503-153.084526H511.988382L360.636739 884.870554a36.705629 36.705629 0 0 1-52.656035 0 38.241594 38.241594 0 0 1 0-53.522478l98.695606-100.231571h-207.94605C89.007211 731.116505 0 640.809631 0 529.393082v-453.897392c0-111.377165 89.007211-201.684039 198.690876-201.684039h744.824944c109.604897 0 198.612108 90.306874 198.612109 201.644655V529.432466c0 111.416549-89.007211 201.723422-198.612109 201.723422h-196.052166zM538.966231 336.649148c36.233024-2.914395 88.613374 4.056523 88.613374 50.568699 0 34.893977-27.962442 54.07385-58.878664 54.07385-42.849489 0-64.825606-30.79807-64.274234-72.662967H424.162682c2.953779 83.690409 57.697152 140.678654 143.908119 140.678654 66.637257 0 139.812212-40.132012 139.812212-112.794979 0-38.911117-19.652477-72.072211-58.287908-83.099652v-1.181512c45.803268-9.84593 73.765711-46.512175 73.765711-92.433595 0-85.423292-73.805094-133.668351-154.659875-133.668351-93.378804 0-156.432143 54.625222-154.659875 148.200944h80.303408c1.772267-44.109768 24.378524-80.185257 73.135572-80.185257 38.084059 0 67.818769 24.96928 67.818768 63.959164 0 61.596141-55.334129 60.414629-96.332583 60.414629v58.130373z"  horiz-adv-x="1142" />

    
    <glyph glyph-name="ic_home_" unicode="&#58960;" d="M531.6096 826.624l4.9664-3.5328 409.6-341.3504a38.4 38.4 0 0 0-44.544-62.3104l-4.608 3.328-28.0576 23.3984v-274.5344c0-113.3056-82.432-207.0016-187.7504-212.5824l-9.9328-0.3072H352.768c-106.6496 0-192.3584 90.3168-197.4784 202.3424l-0.2048 10.5472v144.128a38.4 38.4 0 0 0 76.4416 5.1712l0.3584-5.1712v-144.128c0-72.8576 50.6368-131.2256 112.9984-135.7824l7.8848-0.3072h318.5664c63.3344 0 116.48 55.5008 120.6272 127.0784l0.256 9.0112V510.1568L512 743.6288 126.976 422.7584a38.4 38.4 0 0 0-53.248 55.04l4.096 3.9424 409.6 341.3504a38.4 38.4 0 0 0 44.1856 3.5328z m60.5184-606.208a38.4 38.4 0 0 0 67.328-36.9152c-31.6416-57.7536-82.432-88.2176-147.456-88.2176-65.024 0-115.8144 30.464-147.456 88.2176a38.4 38.4 0 1 0 67.328 36.9152c18.2784-33.28 43.3152-48.3328 80.128-48.3328s61.8496 15.0528 80.128 48.3328z"  horiz-adv-x="1024" />

    
    <glyph glyph-name="ic_Content_" unicode="&#58981;" d="M583.168 846.6432l0.3072-0.256 3.6864-3.2256 256-256a37.5808 37.5808 0 0 0 11.264-28.5696v-286.6176a38.7072 38.7072 0 0 0-0.4608-5.632c19.9168-12.0832 36.864-29.0816 48.8448-49.92l28.8768-50.0224c23.5008-40.6528 25.088-90.112 4.7104-131.9424l-4.7104-8.8576-28.8768-50.0224a140.8 140.8 0 0 0-121.9072-70.4h-57.8048a140.8 140.8 0 0 0-121.9072 70.4l-1.5872 2.7648a38.2976 38.2976 0 0 0-2.4064-0.4096l-5.1712-0.3072h-384a102.4 102.4 0 0 0-102.144 94.72l-0.3072 7.68V751.9744A102.4 102.4 0 0 0 200.3456 854.1696l7.68 0.256L559.36 854.528a37.2736 37.2736 0 0 0 23.808-7.8336z m197.7344-636.6208h-57.8048c-22.8352 0-43.9808-12.1856-55.3984-32l-28.8768-50.0224a64 64 0 0 1 0-64l28.8768-50.0224a64 64 0 0 1 55.3984-32h57.8048c22.8352 0 43.9808 12.1856 55.3984 32l28.8768 50.0224 3.3792 6.7584A64 64 0 0 1 865.1776 128l-28.8768 50.0224a64 64 0 0 1-55.3984 32zM521.5744 777.6256H208.0768a25.6 25.6 0 0 1-25.1904-20.992l-0.4608-4.608v-672.0512a25.6 25.6 0 0 1 20.992-25.1392l4.608-0.4608h351.744a140.8 140.8 0 0 0 12.5952 112.0256l28.8768 50.0224a140.8 140.8 0 0 0 121.9072 70.4h54.4768V521.6256h-153.6a102.4 102.4 0 0 0-102.4 102.4v153.6z m-59.0336-248.832l128-79.9744c34.0992-21.2992 35.9936-69.376 5.632-93.6448l-5.632-3.9936-128-79.9744a57.6 57.6 0 0 0-88.1664 48.8448V479.9488c0 45.2608 49.7664 72.8064 88.1664 48.8448z m-36.9664-48.8448v-159.8976c0-5.0176 5.5808-8.0896 9.8304-5.4272l128 79.9744 1.8944 1.8432a6.4 6.4 0 0 1-1.8944 8.96l-128 79.9744a6.4 6.4 0 0 1-9.7792-5.4272z m172.8512 243.3536v-99.328a25.6 25.6 0 0 1 25.6-25.6h99.2768l-124.928 124.928zM752.0256 96m-51.2 0a51.2 51.2 0 1 1 102.4 0 51.2 51.2 0 1 1-102.4 0Z"  horiz-adv-x="1024" />

    
    <glyph glyph-name="ic_data_" unicode="&#58982;" d="M281.6 25.6h460.8a38.4 38.4 0 0 0 5.2224-76.4416l-5.2224-0.3584h-460.8a38.4 38.4 0 0 0-5.2224 76.4416L281.6 25.6h460.8z m498.2784 780.8a154.5216 154.5216 0 0 0 154.5216-154.5216v-382.1568a154.5216 154.5216 0 0 0-154.5216-154.5216H244.1216a154.5216 154.5216 0 0 0-154.5216 154.5216V651.8784A154.5216 154.5216 0 0 0 244.1216 806.4h535.7568z m0-76.8H244.1216c-42.9056 0-77.7216-34.816-77.7216-77.7216v-382.1568c0-42.9056 34.816-77.7216 77.7216-77.7216h535.7568c42.9056 0 77.7216 34.816 77.7216 77.7216V651.8784c0 42.9056-34.816 77.7216-77.7216 77.7216z m-62.8736-137.6256a38.4 38.4 0 1 0 50.7904-57.5488l-207.7184-183.2448a38.4 38.4 0 0 0-47.0016-2.9696L412.672 416.4608l-106.5984-87.7056a38.4 38.4 0 1 0-48.8448 59.2896L386.048 494.08a38.4 38.4 0 0 0 45.9776 2.1504l99.6352-67.6864z"  horiz-adv-x="1024" />

    
    <glyph glyph-name="ic_earnings_" unicode="&#58983;" d="M562.432 836.8128l9.8816-8.5504a31.0272 31.0272 0 0 1 31.0272-2.8672l28.672 13.312a63.8976 63.8976 0 0 0 82.432-89.6l-40.3456-71.168a192 192 0 0 0-159.5392-97.1264l-33.28-1.8944-18.7392-1.5872C293.7344 551.424 145.92 385.024 145.92 229.6832c0-136.2944 135.3728-212.0704 361.6256-212.0704 226.2016 0 361.5744 75.776 361.5744 212.0192 0 100.8128-76.032 234.5984-178.5856 309.6064a38.4 38.4 0 0 0 45.312 62.0032c121.344-88.7808 210.0736-244.8384 210.0736-371.6096 0-190.6688-175.4112-288.8192-438.4256-288.8192-262.9632 0-438.3744 98.1504-438.3744 288.8192 0 165.9904 129.28 335.8208 296.3456 400.5888L300.1344 749.568a64.256 64.256 0 0 0 76.4416 91.904l7.1168-2.7648 28.1088-13.1072c11.6736-5.4784 25.4976-3.1232 34.7136 5.8368l6.2976 5.5296a87.552 87.552 0 0 0 109.6192-0.1024z m72.8576-405.4528a25.6 25.6 0 0 0 4.4032-35.9424l-74.1376-94.6176H619.52a25.6 25.6 0 0 0 4.608-50.7904l-4.608-0.4096h-86.4256v-28.7744H619.52a25.6 25.6 0 0 0 25.1904-20.992l0.4096-4.608a25.6 25.6 0 0 0-25.6-25.6h-86.4256v-46.8992a25.6 25.6 0 0 0-20.992-25.1392l-4.608-0.4608a25.6 25.6 0 0 0-25.1392 20.992l-0.4096 4.608-0.0512 46.8992H395.52a25.6 25.6 0 0 0-25.1904 20.992l-0.4096 4.608a25.6 25.6 0 0 0 25.6 25.6h86.3232l0.0512 28.7744H395.52a25.6 25.6 0 0 0-4.608 50.7904l4.608 0.4096H449.024l-73.6768 94.208a25.6 25.6 0 0 0 1.024 32.768l3.3792 3.1232a25.6 25.6 0 0 0 32.768-1.024l3.1744-3.328 91.648-117.1456 92.0064 117.5552a25.6 25.6 0 0 0 35.9424 4.4032z m-135.168 344.9856l-6.8608-6.0928a107.8784 107.8784 0 0 0-99.072-19.968l-8.4992 2.9184 55.1936-100.8128 13.312 1.3312a372.9408 372.9408 0 0 0 55.5008 3.84h1.8432a115.2 115.2 0 0 1 95.744 58.2656l20.8896 36.7616a107.8272 107.8272 0 0 0-113.152 23.7568 10.752 10.752 0 0 1-14.9504 0z"  horiz-adv-x="1024" />

    
    <glyph glyph-name="ic_college_" unicode="&#58984;" d="M542.208 770.7648l9.728-2.816 425.6768-142.9504c30.0032-10.0864 46.9504-43.2128 30.6176-72.9088a53.5552 53.5552 0 0 0-24.32-22.528l-6.2976-2.56-56.576-18.944a38.4 38.4 0 0 0-39.5264 63.3856l3.9424 3.4816-357.9904 120.2176a50.1248 50.1248 0 0 1-24.8832 1.536l-6.0416-1.536-354.816-119.1424 354.816-119.1424a50.1248 50.1248 0 0 1 24.8832-1.536l6.0416 1.536 269.3632 90.4704a38.4512 38.4512 0 0 0 9.728 1.8944 38.4 38.4 0 0 0 47.5136-32.0512l0.3072-5.1712v-261.376l32 32.0512V448a25.6 25.6 0 0 0 50.7904 4.608l0.4608-4.608v-165.376l40.448-40.4992a25.6 25.6 0 0 0 0-36.2496l-47.9744-47.9744a25.6 25.6 0 0 0-36.1984 0l-39.5264 39.5264V128a134.4 134.4 0 0 0-125.8496-134.144l-8.4992-0.256H303.9744a134.4 134.4 0 0 0-134.144 125.9008L169.6256 128v248.0128a38.4 38.4 0 0 0 76.4928 5.2224l0.3072-5.2224V128c0-29.696 22.528-54.1184 51.3536-57.2416l6.2464-0.3584h416c29.696 0 54.1696 22.4768 57.2928 51.3024l0.3584 6.2976V459.8784l-225.7408-75.8272c-22.3744-7.5264-47.104-8.448-70.0416-2.816L472.064 384 46.3872 527.0016C16.384 537.088-0.5632 570.2144 15.7696 599.9104c5.5296 10.0864 14.1824 17.7664 24.32 22.528l6.2976 2.56 425.728 142.9504c22.3744 7.5264 47.104 8.448 70.0416 2.816zM399.9744 320c17.664 0 32-14.336 32-32v-80.0256a32 32 0 1 0-64 0v80.0256c0 17.664 14.336 32 32 32z m224 0c17.664 0 31.9488-14.336 31.9488-32v-80.0256a32 32 0 1 0-64 0v80.0256c0 17.664 14.336 32 32.0512 32z m285.5424-105.3696l2.4064-2.4064 2.4576 2.304a25.9072 25.9072 0 0 0-2.4064-0.1024l-2.4576 0.2048z"  horiz-adv-x="1024" />

    
    <glyph glyph-name="ic_experiment" unicode="&#58985;" d="M756.48 768a38.4 38.4 0 1 0 0-76.8H680.96v-210.8928l0.3584-2.304 1.024-2.048 245.0432-347.5968a84.48 84.48 0 0 0-61.7472-132.864l-7.3216-0.3072H165.6832a84.48 84.48 0 0 0-73.4208 126.3104l4.352 6.8608 245.0432 347.5456 1.024 2.0992 0.3584 2.304V691.2H267.52a38.4 38.4 0 0 0 0 76.8h488.96z m-88.4736-404.992l-18.944-3.84a81.0496 81.0496 0 0 1-21.6064-8.192 238.592 238.592 0 0 1-12.4416-7.5264l-4.5056-2.8672-33.024-21.248-24.2688-15.2576c-72.704-42.752-152.8832-41.0624-236.8512 2.56l-156.9792-222.5152a7.68 7.68 0 0 1 1.8432-10.752l2.0992-1.024 2.3552-0.3584h692.6336a7.68 7.68 0 0 1 7.68 7.68l-0.3584 2.3552-1.024 2.048-196.608 278.9376z m-213.6064-156.6208a51.2 51.2 0 1 0 0-102.4 51.2 51.2 0 0 0 0 102.4z m166.4 43.2128a43.52 43.52 0 1 0 0-87.04 43.52 43.52 0 0 0 0 87.04zM604.16 691.2H419.84v-210.8928c0-14.4896-3.7376-28.7232-10.8032-41.3184l-4.608-7.3216-43.3664-61.5936c57.4976-27.4432 107.52-26.6752 153.2416 0.2048 12.8 7.5776 63.4368 41.3184 77.3632 48.64 9.5744 5.0688 18.8928 9.0112 28.4672 11.9808l-0.512 0.768a84.48 84.48 0 0 0-15.0016 39.9872l-0.4608 8.704V691.2z"  horiz-adv-x="1024" />

    
    <glyph glyph-name="ic_set_1" unicode="&#58986;" d="M669.952 806.4c50.688 0 97.4848-27.2896 122.4704-71.3728l159.5904-281.6a140.8 140.8 0 0 0 4.5568-130.0992l-4.608-8.704-159.5392-281.6a140.8 140.8 0 0 0-122.4704-71.424h-315.904a140.8 140.8 0 0 0-122.4704 71.3728l-159.5904 281.6a140.8 140.8 0 0 0 0 138.8544l159.5904 281.6A140.8 140.8 0 0 0 354.048 806.4h315.904z m0-76.8h-315.904c-23.04 0-44.288-12.3904-55.6544-32.4608l-159.5904-281.6a64 64 0 0 1 0-63.0784l159.5904-281.6a64 64 0 0 1 55.6544-32.4608h315.904c23.04 0 44.288 12.3904 55.6544 32.4608l159.5904 281.6 3.2768 6.656a64 64 0 0 1-3.2768 56.4224l-159.5904 281.6a64 64 0 0 1-55.6544 32.4608zM512 601.6a217.6 217.6 0 1 0 0-435.2 217.6 217.6 0 0 0 0 435.2z m0-76.8a140.8 140.8 0 1 1 0-281.6 140.8 140.8 0 0 1 0 281.6z"  horiz-adv-x="1024" />

    
    <glyph glyph-name="ic_message_" unicode="&#58987;" d="M921.6 793.6a102.4 102.4 0 0 0 102.4-102.4v-614.4a102.4 102.4 0 0 0-102.4-102.4H102.4a102.4 102.4 0 0 0-102.4 102.4V691.2a102.4 102.4 0 0 0 102.4 102.4h819.2z m0-102.4H102.4v-614.4h819.2V691.2z m-133.12-112.64a51.2 51.2 0 1 0 61.44-81.92l-245.76-184.32a153.6 153.6 0 0 0-184.32 0L174.08 496.64a51.2 51.2 0 1 0 61.44 81.92l245.76-184.32a51.2 51.2 0 0 1 61.44 0z"  horiz-adv-x="1024" />

    
    <glyph glyph-name="ic_contribute" unicode="&#58988;" d="M185.457778 376.263111h131.697778a42.666667 42.666667 0 0 0 5.802666-84.935111l-5.802666-0.398222H185.457778c-32.768 0-58.993778-22.983111-62.350222-51.712l-0.398223-6.200889v-75.434667c0-29.411556 24.120889-54.385778 55.864889-57.571555l6.883556-0.341334H844.231111c32.768 0 59.050667 22.983111 62.407111 51.712l0.341334 6.257778v75.377778c0 29.411556-24.064 54.385778-55.808 57.571555l-6.940445 0.341334h-131.754667a42.666667 42.666667 0 0 0-5.802666 84.935111l5.802666 0.398222h131.754667c78.108444 0 142.734222-58.709333 147.740445-133.802667l0.341333-9.443555v-75.434667c0-76.401778-61.496889-138.126222-138.410667-142.904889l-9.671111-0.341333H185.457778c-78.108444 0-142.791111 58.709333-147.797334 133.802667l-0.341333 9.443555v75.434667c0 76.401778 61.496889 138.126222 138.410667 142.961778l9.671111 0.284444h131.754667z m299.918222 403.057778a42.666667 42.666667 0 0 0 58.88 0l197.688889-188.586667a42.666667 42.666667 0 0 0-58.936889-61.724444L557.511111 648.760889v-390.599111a42.666667 42.666667 0 0 0-84.935111-5.802667l-0.341333 5.802667V648.760889L346.567111 529.066667a42.666667 42.666667 0 0 0-55.637333-2.844445l-4.664889 4.266667a42.666667 42.666667 0 0 0 1.422222 60.302222z"  horiz-adv-x="1024" />

    
    <glyph glyph-name="ic_search_" unicode="&#58989;" d="M448 864a416 416 0 0 0 300.672-703.488l219.072-219.008a32 32 0 1 0-45.248-45.248l-221.568 221.44A416 416 0 1 0 448 864z m0-64a352 352 0 1 1 0-704 352 352 0 0 1 0 704z"  horiz-adv-x="1024" />

    
    <glyph glyph-name="Selectedx" unicode="&#58990;" d="M960 896a64 64 0 0 0 64-64v-896a64 64 0 0 0-64-64H64a64 64 0 0 0-64 64V832a64 64 0 0 0 64 64h896z m-133.12-323.52a48 48 0 0 1-67.904 0L453.44 267.008 329.024 391.424a48 48 0 1 1-67.84-67.84l158.336-158.4a48 48 0 0 1 67.904 0l339.392 339.392a48 48 0 0 1 0 67.84z"  horiz-adv-x="1024" />

    
    <glyph glyph-name="Defaultx" unicode="&#58991;" d="M960 896a64 64 0 0 0 64-64v-896a64 64 0 0 0-64-64H64a64 64 0 0 0-64 64V832a64 64 0 0 0 64 64h896zM64 832v-896h896V832H64z"  horiz-adv-x="1024" />

    
    <glyph glyph-name="ic_MenuButton-tick" unicode="&#58992;" d="M185.051429 381.074286a54.857143 54.857143 0 0 0 77.604571 0l142.189714-142.262857 400.822857 400.822857a54.857143 54.857143 0 0 0 77.604572-77.531429l-438.857143-438.930286a54.857143 54.857143 0 0 0-78.262857-0.731428L185.051429 303.469714a54.857143 54.857143 0 0 0 0 77.531429z"  horiz-adv-x="1024" />

    
    <glyph glyph-name="ic_exit" unicode="&#58993;" d="M620.916364 81.128727a92.532364 92.532364 0 0 1 92.951272 92.113455v12.893091a23.272727 23.272727 0 0 1-46.545454 0v-12.893091c0-25.134545-20.712727-45.614545-46.359273-45.614546H239.569455a45.986909 45.986909 0 0 0-46.405819 45.614546V603.461818c0 25.134545 20.712727 45.614545 46.405819 45.614546h381.393454c25.646545 0 46.359273-20.48 46.359273-45.614546v-12.893091a23.272727 23.272727 0 1 1 46.545454 0v12.893091a92.532364 92.532364 0 0 1-92.904727 92.16H239.569455a92.532364 92.532364 0 0 1-92.951273-92.16v-430.219636c0-50.967273 41.658182-92.16 92.951273-92.16z m136.750545 161.792a23.272727 23.272727 0 0 1 32.907636-0.186182l130.606546 129.070546a23.272727 23.272727 0 0 1 0 33.093818l-130.606546 129.070546a23.272727 23.272727 0 0 1-32.721454-33.093819l90.298182-89.274181h-282.949818a23.272727 23.272727 0 0 1-22.900364-19.083637l-0.372364-4.189091a23.272727 23.272727 0 0 1 23.272728-23.272727h282.903272l-90.298182-89.227636a23.272727 23.272727 0 0 1-2.792727-29.649455z"  horiz-adv-x="1024" />

    
    <glyph glyph-name="ic_Ishop" unicode="&#58994;" d="M780.520727 405.783273a23.272727 23.272727 0 0 1 23.272728 23.272727V607.511273c0 71.214545-57.623273 128.930909-128.698182 128.930909h-340.247273a128.791273 128.791273 0 0 1-128.698182-128.930909v-178.455273a23.272727 23.272727 0 1 1 46.545455 0V607.511273c0 45.474909 36.770909 82.385455 82.152727 82.385454h340.247273c45.335273 0 82.152727-36.910545 82.152727-82.385454v-178.455273a23.272727 23.272727 0 0 1 23.272727-23.272727z m-22.388363-374.225455a59.112727 59.112727 0 0 1 56.133818 40.634182l61.346909 186.321455a90.530909 90.530909 0 0 1-86.016 118.830545 132.654545 132.654545 0 0 1-100.538182-46.08 101.562182 101.562182 0 0 1-85.364364 46.08c-38.027636 0-71.773091-18.245818-92.997818-46.498909a115.805091 115.805091 0 0 1-92.904727 46.545454c-35.746909 0-67.165091-18.385455-85.457455-46.126545a132.328727 132.328727 0 0 1-100.491636 46.08 90.530909 90.530909 0 0 1-85.969454-118.830545L207.127273 72.145455c8.005818-24.203636 30.626909-40.587636 56.180363-40.587637h494.778182z m-411.461819 46.545455h-83.316363a12.567273 12.567273 0 0 0-11.962182 8.657454l-61.300364 186.274909a43.985455 43.985455 0 0 0 41.751273 57.762909c42.216727 0 78.242909-30.580364 85.085091-72.238545l29.742545-180.410182z m140.8 0H393.774545l-29.742545 180.410182-1.210182 7.633454a55.621818 55.621818 0 0 0 54.923637 64.698182c38.446545 0 69.678545-31.232 69.678545-69.725091v-182.970182z m140.148364 0h-93.602909V261.12c0 38.493091 31.185455 69.678545 69.678545 69.678545a55.621818 55.621818 0 0 0 54.923637-64.698181l-1.303273-7.586909-29.696-180.363637z m130.513455 0h-83.316364l1.396364 8.657454 28.299636 171.799273a86.248727 86.248727 0 0 0 85.085091 72.238545 43.985455 43.985455 0 0 0 41.797818-57.716363l-61.346909-186.321455a12.567273 12.567273 0 0 0-11.915636-8.610909z"  horiz-adv-x="1024" />

    
    <glyph glyph-name="ic_management" unicode="&#58995;" d="M577.954909-5.026909a22.574545 22.574545 0 0 1 11.031273 2.373818l0.930909 0.558546 1.163636 0.698181a16.849455 16.849455 0 0 1 3.351273 2.513455 21.876364 21.876364 0 0 1 0.884364 0.884364l221.090909 225.28 0.558545 0.558545 0.698182 0.791273 0.465455 0.605091 1.489454 2.094545 0.465455 0.930909a22.202182 22.202182 0 0 1 2.978909 12.241455V497.012364l-0.232728 2.327272c11.822545 5.12 21.876364 13.963636 28.439273 25.506909l55.296 97.559273a59.857455 59.857455 0 0 1 0 58.973091l-55.296 97.559273a59.857455 59.857455 0 0 1-52.084363 30.347636h-109.381819c-21.504 0-41.425455-11.589818-52.037818-30.347636l-20.48-36.119273a23.133091 23.133091 0 0 1-6.749091 2.327273l-4.189091 0.418909H274.711273c-41.192727 0-74.845091-32.116364-78.289455-72.750546l-0.279273-6.842181v-591.36c0-41.565091 31.464727-75.822545 71.773091-79.313455l6.795637-0.279273h303.243636zM799.185455 541.044364h-109.381819a13.312 13.312 0 0 0-11.543272 6.749091l-55.296 97.559272a13.312 13.312 0 0 0 0 13.079273l55.296 97.559273a13.312 13.312 0 0 0 11.589818 6.749091h109.381818c4.747636 0 9.169455-2.56 11.543273-6.749091l55.296-97.559273c2.327273-4.049455 2.327273-9.029818 0-13.079273l-55.296-97.559272a13.312 13.312 0 0 0-11.589818-6.749091z m-243.805091-499.479273h-280.669091a32.395636 32.395636 0 0 0-31.697455 28.532364l-0.325818 4.514909V665.972364c0 16.802909 12.101818 30.580364 27.694545 32.721454l4.328728 0.325818h317.765818l-10.007273-17.640727a59.857455 59.857455 0 0 1 0-58.973091l55.296-97.559273c10.612364-18.757818 30.533818-30.347636 52.084364-30.347636l86.621091-0.046545v-227.607273h-142.475637c-43.52 0-78.568727-35.746909-78.568727-79.592727v-145.687273z m189.160727 568.087273a41.890909 41.890909 0 0 1 41.425454 42.216727 41.890909 41.890909 0 0 1-41.425454 42.263273 41.890909 41.890909 0 0 1-41.472-42.263273 41.890909 41.890909 0 0 1 41.425454-42.216727z m-250.321455-337.594182l112.64 69.026909a50.594909 50.594909 0 0 1 5.12 82.990545l-5.12 3.537455-112.64 69.073454c-34.164364 20.945455-78.522182-3.211636-78.522181-43.287272v-138.100364c0-40.029091 44.357818-64.186182 78.522181-43.287273z m-31.976727 43.287273V453.399273c0 3.304727 4.235636 5.632 7.633455 3.584l112.64-69.073455 1.396363-1.256727c1.303273-1.861818 0.884364-4.514909-1.396363-5.911273l-112.64-69.073454c-3.397818-2.048-7.633455 0.232727-7.633455 3.584z m139.729455-240.128v112.034909a32.581818 32.581818 0 0 0 32.023272 33.047272h110.312728l-142.336-145.082181z"  horiz-adv-x="1024" />

    
    <glyph glyph-name="ic_Livecenter" unicode="&#58996;" d="M677.701818 586.24a23.272727 23.272727 0 1 1 0 46.545455h-21.736727v3.258181a74.472727 74.472727 0 0 1-74.472727 74.472728h-153.6a74.472727 74.472727 0 0 1-74.472728-74.472728v-3.258181H245.154909a122.088727 122.088727 0 0 1-121.902545-114.222546l-0.232728-7.726545v-320.698182a122.042182 122.042182 0 0 1 122.135273-121.949091h519.074909a122.042182 122.042182 0 0 1 122.135273 121.949091v320.698182a122.042182 122.042182 0 0 1-122.135273 121.949091 23.272727 23.272727 0 1 1 0-46.545455c41.751273 0 75.589818-33.745455 75.589818-75.403636v-320.698182c0-41.658182-33.838545-75.403636-75.589818-75.403637H245.154909a75.496727 75.496727 0 0 0-75.589818 75.403637v320.698182c0 41.658182 33.838545 75.403636 75.589818 75.403636z m-68.282182 46.545455h-209.454545v3.258181a27.927273 27.927273 0 0 0 27.927273 27.927273h153.6a27.927273 27.927273 0 0 0 27.927272-27.927273v-3.258181z m-104.727272-461.032728c97.745455 0 176.872727 80.058182 176.872727 178.734546 0 98.629818-79.127273 178.688-176.872727 178.688-97.745455 0-176.872727-80.058182-176.872728-178.734546 0-98.583273 79.127273-178.688 176.872728-178.688z m0 46.545455c-71.912727 0-130.327273 59.112727-130.327273 132.189091 0 73.076364 58.414545 132.142545 130.327273 132.142545s130.327273-59.112727 130.327272-132.189091c0-73.029818-58.414545-132.142545-130.327272-132.142545z"  horiz-adv-x="1024" />

    
    <glyph glyph-name="ic_moneypocket" unicode="&#58997;" d="M746.077091 104.727273c69.352727 0 125.672727 55.575273 125.672727 124.322909v12.613818c0 40.866909-33.419636 73.821091-74.472727 73.821091h-222.021818a28.253091 28.253091 0 0 0-19.828364 8.098909l-51.2 50.501818a26.763636 26.763636 0 0 0 0 38.353455l51.2 50.501818a28.253091 28.253091 0 0 0 19.828364 8.098909h247.621818c29.602909 0 53.527273-23.598545 53.527273-52.503273v-82.944a23.272727 23.272727 0 1 1 46.545454 0v82.944a99.607273 99.607273 0 0 1-100.072727 99.048728h-247.621818c-19.688727 0-38.586182-7.726545-52.549818-21.504l-51.2-50.548364a73.309091 73.309091 0 0 1 0-104.541091l51.2-50.548364c13.963636-13.777455 32.861091-21.504 52.596363-21.504h221.975273c15.453091 0 27.927273-12.288 27.927273-27.275636v-12.567273c0-42.914909-35.374545-77.824-79.127273-77.824h-460.8c-43.752727 0-79.127273 34.909091-79.127273 77.777455V557.474909c0 42.868364 35.374545 77.777455 79.127273 77.777455h460.8a79.127273 79.127273 0 0 0 73.355636-48.546909 23.272727 23.272727 0 0 1 43.008 17.733818 125.672727 125.672727 0 0 1-116.363636 77.358545h-460.8c-69.352727 0-125.672727-55.575273-125.672727-124.322909v-328.424727c0-68.747636 56.32-124.322909 125.672727-124.322909z m-128 250.647272a38.167273 38.167273 0 0 1 38.4 37.888 38.167273 38.167273 0 0 1-38.4 37.888 38.167273 38.167273 0 0 1-38.4-37.888c0-20.945455 17.175273-37.888 38.4-37.888z"  horiz-adv-x="1024" />

    
    <glyph glyph-name="ic_ordercenter" unicode="&#58998;" d="M649.122909-4.980364c40.308364 0 74.938182 24.436364 89.739636 59.345455h30.254546c46.498909 0 84.386909 36.864 84.386909 82.664727V686.08c0 45.754182-37.888 82.618182-84.340364 82.618182H280.529455c-46.452364 0-84.386909-36.864-84.38691-82.618182v-549.096727c0-45.800727 37.934545-82.664727 84.38691-82.664728h30.254545a97.512727 97.512727 0 0 1 89.739636-59.345454h248.599273zM303.476364 100.957091h-22.900364c-21.038545 0-37.841455 16.290909-37.841455 36.072727V686.08c0 19.781818 16.756364 36.072727 37.841455 36.072727h488.634182c21.038545 0 37.794909-16.290909 37.794909-36.072727v-549.096727c0-19.781818-16.756364-36.119273-37.794909-36.119273h-22.900364a97.466182 97.466182 0 0 1-97.140363 89.041455H400.523636a97.466182 97.466182 0 0 1-97.093818-88.99491z m236.683636 416.721454a27.461818 27.461818 0 1 1 0 54.877091H372.130909a27.461818 27.461818 0 1 1 0-54.877091z m137.402182-99.700363a23.272727 23.272727 0 0 1 0 46.545454H372.130909a23.272727 23.272727 0 1 1 0-46.545454z m0-103.889455a23.272727 23.272727 0 0 1 0 46.545455H372.130909a23.272727 23.272727 0 1 1 0-46.545455z m-28.392727-272.523636H400.523636a50.920727 50.920727 0 1 0 0 101.841454h248.599273a50.920727 50.920727 0 1 0 0-101.841454z"  horiz-adv-x="1024" />

    
    <glyph glyph-name="ic_Personalcenter" unicode="&#58999;" d="M512 772.980364a209.454545 209.454545 0 0 0 87.086545-400.011637A349.090909 349.090909 0 0 0 861.090909 34.909091a23.272727 23.272727 0 0 0-46.545454 0 302.545455 302.545455 0 1 1-605.09091 0 23.272727 23.272727 0 0 0-46.545454 0 349.230545 349.230545 0 0 0 262.050909 338.152727A209.454545 209.454545 0 0 0 512 772.980364z m0-46.545455a162.909091 162.909091 0 1 1 0-325.818182 162.909091 162.909091 0 0 1 0 325.818182z"  horiz-adv-x="1024" />

    
    <glyph glyph-name="icon_tasklist_delete_" unicode="&#59000;" d="M209.472 593.472v-546.944c0-25.6 34.88-58.176 58.176-58.176h488.704c23.296 0 58.24 32.64 58.24 58.24V593.408h46.528v-551.552c0-51.2-51.2-100.096-100.096-100.096H260.672c-48.896 0-97.792 48.896-97.792 100.096V593.472h46.592zM885.76 709.76c13.12 0 21.888-9.344 21.888-23.296s-8.768-23.232-21.888-23.232H138.24c-13.12 0-21.888 9.28-21.888 23.232s8.768 23.296 21.888 23.296z m-513.408-256c13.952 0 23.296-10.24 23.296-25.6v-204.8c0-15.36-9.344-25.6-23.296-25.6s-23.232 10.24-23.232 25.6v204.8c0 15.36 9.28 25.6 23.232 25.6zM512 453.76c13.952 0 23.296-10.24 23.296-25.6v-204.8c0-15.36-9.344-25.6-23.296-25.6s-23.296 10.24-23.296 25.6v204.8c0 15.36 9.344 25.6 23.296 25.6z m139.648 0c13.952 0 23.232-10.24 23.232-25.6v-204.8c0-15.36-9.28-25.6-23.232-25.6s-23.296 10.24-23.296 25.6v204.8c0 15.36 9.344 25.6 23.296 25.6z m-46.528 372.352c13.952 0 23.232-9.28 23.232-23.296 0-13.952-9.28-23.232-23.232-23.232h-186.24c-13.952 0-23.232 9.28-23.232 23.232 0 14.016 9.28 23.296 23.232 23.296z"  horiz-adv-x="1024" />

    
    <glyph glyph-name="baohux" unicode="&#59001;" d="M517.76 841.856c17.728 0 32-11.712 32-26.24l0.064-71.488c227.84-18.176 407.296-198.656 407.296-419.328a26.24 26.24 0 0 0-26.24-26.176h-2.752a26.24 26.24 0 0 0-25.152 18.944c-9.536 33.024-55.68 59.968-111.68 59.968-56.064 0-102.208-26.88-111.68-59.968a26.24 26.24 0 0 0-25.216-18.944h-5.568a26.24 26.24 0 0 0-25.152 18.944c-7.936 27.712-41.728 51.2-85.44 57.984v-360.64c0-29.056 23.872-52.736 53.568-52.736 29.632 0 53.568 23.68 53.568 52.736a26.24 26.24 0 1 0 52.416 0 105.6 105.6 0 0 0-105.984-105.088 105.6 105.6 0 0 0-105.984 105.088L485.76 375.552c-43.712-6.848-77.44-30.272-85.44-57.984a26.24 26.24 0 0 0-25.152-18.944h-5.568a26.24 26.24 0 0 0-25.216 18.944c-9.472 33.024-55.616 59.968-111.68 59.968-56 0-102.144-26.88-111.68-59.968a26.24 26.24 0 0 0-25.152-18.944h-2.752a26.24 26.24 0 0 0-26.24 26.24c0 224.384 185.6 407.232 418.944 420.032V815.68c0 14.464 14.336 26.176 32 26.176zM512 693.248c-188.8 0-346.176-124.928-384-291.072a203.072 203.072 0 0 0 104.704 27.712c57.472 0 109.696-21.824 139.648-56.96 29.952 35.136 82.176 56.96 139.648 56.96 57.472 0 109.696-21.824 139.648-56.96 29.952 35.136 82.176 56.96 139.648 56.96 39.104 0 75.84-10.112 104.768-27.712C858.176 568.32 700.8 693.248 512 693.248z"  horiz-adv-x="1024" />

    
    <glyph glyph-name="bubaohux" unicode="&#59002;" d="M509.12 237.056a26.24 26.24 0 0 0 26.176-26.24v-205.76c0-29.056 23.936-52.736 53.568-52.736 29.696 0 53.632 23.68 53.632 52.736a26.24 26.24 0 0 0 52.352 0 105.6 105.6 0 0 0-105.984-105.088 105.6 105.6 0 0 0-105.984 105.088v205.824a26.24 26.24 0 0 0 26.24 26.176z m354.304 589.504a26.24 26.24 0 0 0 4.8-36.736l-116.928-151.872a26.24 26.24 0 0 0-3.52-4.8L191.488-89.792a26.24 26.24 0 0 0-41.472 31.872L474.624 364.16c-39.68-8.32-69.76-30.528-77.184-56.448a26.24 26.24 0 0 0-25.216-18.944H366.72a26.24 26.24 0 0 0-25.152 18.944c-9.472 33.024-55.68 59.968-111.68 59.968-56.064 0-102.208-26.88-111.68-59.968a26.24 26.24 0 0 0-25.152-18.944h-2.816A26.24 26.24 0 0 0 64 315.008c0 224.384 185.6 407.232 418.944 420.032V805.824c0 14.464 14.272 26.176 32 26.176 17.664 0 32-11.712 32-26.24v-71.488c61.632-4.928 120.832-21.76 174.464-49.344l105.28 136.832a26.24 26.24 0 0 0 36.736 4.8z m-46.272-207.872c86.912-78.784 137.024-187.52 137.024-303.744a26.24 26.24 0 0 0-26.176-26.176h-2.816a26.24 26.24 0 0 0-25.152 18.944c-9.472 33.024-55.68 59.968-111.68 59.968-56.064 0-102.208-26.88-111.68-59.968a26.24 26.24 0 0 0-25.152-18.944h-5.568a26.24 26.24 0 0 0-25.152 18.944c-3.648 12.608-12.864 24.832-27.008 35.072a26.24 26.24 0 0 0 30.784 42.368c9.152-6.592 17.28-14.08 24.128-22.08 29.952 35.072 82.176 56.96 139.648 56.96 39.168 0 75.904-10.112 104.768-27.712a361.92 361.92 0 0 1-111.168 187.584 26.24 26.24 0 0 0 35.2 38.784zM509.12 683.392c-188.864 0-346.24-124.928-384.064-291.072a203.072 203.072 0 0 0 104.768 27.712c57.472 0 109.696-21.824 139.648-56.96 29.888 35.136 82.176 56.96 139.648 56.96l5.056 0.192 3.264 0.128 0.448 0.064 170.944 222.208a411.904 411.904 0 0 1-179.712 40.768z"  horiz-adv-x="1024" />

    
    <glyph glyph-name="ic_Systemerror" unicode="&#59003;" d="M512 896a512 512 0 1 0 0-1024A512 512 0 0 0 512 896zM330.971429 616.740571a36.571429 36.571429 0 1 1-51.712-51.712L460.288 384 279.259429 202.971429a36.571429 36.571429 0 1 1 51.712-51.712L512 332.288l181.028571-181.028571a36.571429 36.571429 0 1 1 51.712 51.712L563.712 384l181.028571 181.028571a36.571429 36.571429 0 1 1-51.712 51.712L512 435.712z"  horiz-adv-x="1024" />

    
    <glyph glyph-name="ic_systemprompt" unicode="&#59004;" d="M512 896a512 512 0 1 0 0-1024A512 512 0 0 0 512 896z m0-365.714286a36.571429 36.571429 0 0 1-36.571429-36.571428v-365.714286a36.571429 36.571429 0 1 1 73.142858 0v365.714286A36.571429 36.571429 0 0 1 512 530.285714z m0 146.285715a36.571429 36.571429 0 1 1 0-73.142858 36.571429 36.571429 0 0 1 0 73.142858z"  horiz-adv-x="1024" />

    
    <glyph glyph-name="ic_successful" unicode="&#59005;" d="M512 896a512 512 0 1 0 0-1024A512 512 0 0 0 512 896z m284.525714-309.540571a36.571429 36.571429 0 0 1-51.785143 0L408.502857 250.294857 279.259429 379.611429a36.571429 36.571429 0 1 1-51.712-51.712l155.136-155.136a36.571429 36.571429 0 0 1 52.297142 0.512l361.472 361.545142a36.571429 36.571429 0 0 1 0 51.712z"  horiz-adv-x="1024" />

    


  </font>
</defs>
</svg>
